  0
SECTION
  2
HEADER
  9
$ACADVER
  1
AC1027
  9
$ACADMAINTVER
 70
    55
  9
$DWGCODEPAGE
  3
ANSI_932
  9
$LASTSAVEDBY
  1
User
  9
$REQUIREDVERSIONS
160
                 0
  9
$INSBASE
 10
0.0000094929055194
 20
-0.0000021391570044
 30
0.0
  9
$EXTMIN
 10
1596.092958785635
 20
358.648146209478
 30
-0.0000000000006999
  9
$EXTMAX
 10
1878.644606409453
 20
922.2678912975361
 30
0.0000000000009519
  9
$LIMMIN
 10
0.0000094929055194
 20
0.0
  9
$LIMMAX
 10
408.1800094929055
 20
285.2399978608428
  9
$ORTHOMODE
 70
     1
  9
$REGENMODE
 70
     1
  9
$FILLMODE
 70
     1
  9
$QTEXTMODE
 70
     0
  9
$MIRRTEXT
 70
     1
  9
$LTSCALE
 40
8.0
  9
$ATTMODE
 70
     1
  9
$TEXTSIZE
 40
24.0
  9
$TRACEWID
 40
1.0
  9
$TEXTSTYLE
  7
STANDARD
  9
$CLAYER
  8
9：寸法線
  9
$CELTYPE
  6
BYLAYER
  9
$CECOLOR
 62
   256
  9
$CELTSCALE
 40
1.0
  9
$DISPSILH
 70
     0
  9
$DIMSCALE
 40
8.0
  9
$DIMASZ
 40
2.5
  9
$DIMEXO
 40
1.25
  9
$DIMDLI
 40
7.0
  9
$DIMRND
 40
0.0
  9
$DIMDLE
 40
0.0
  9
$DIMEXE
 40
1.0
  9
$DIMTP
 40
0.0
  9
$DIMTM
 40
0.0
  9
$DIMTXT
 40
3.5
  9
$DIMCEN
 40
0.0
  9
$DIMTSZ
 40
0.0
  9
$DIMTOL
 70
     0
  9
$DIMLIM
 70
     0
  9
$DIMTIH
 70
     0
  9
$DIMTOH
 70
     0
  9
$DIMSE1
 70
     0
  9
$DIMSE2
 70
     0
  9
$DIMTAD
 70
     3
  9
$DIMZIN
 70
     8
  9
$DIMBLK
  1

  9
$DIMASO
 70
     1
  9
$DIMSHO
 70
     1
  9
$DIMPOST
  1

  9
$DIMAPOST
  1

  9
$DIMALT
 70
     0
  9
$DIMALTD
 70
     2
  9
$DIMALTF
 40
25.4
  9
$DIMLFAC
 40
1.0
  9
$DIMTOFL
 70
     1
  9
$DIMTVP
 40
0.0
  9
$DIMTIX
 70
     0
  9
$DIMSOXD
 70
     0
  9
$DIMSAH
 70
     1
  9
$DIMBLK1
  1
OPEN
  9
$DIMBLK2
  1
OPEN
  9
$DIMSTYLE
  2
×1
  9
$DIMCLRD
 70
     1
  9
$DIMCLRE
 70
     1
  9
$DIMCLRT
 70
     2
  9
$DIMTFAC
 40
1.0
  9
$DIMGAP
 40
1.0
  9
$DIMJUST
 70
     0
  9
$DIMSD1
 70
     0
  9
$DIMSD2
 70
     0
  9
$DIMTOLJ
 70
     1
  9
$DIMTZIN
 70
     0
  9
$DIMALTZ
 70
     0
  9
$DIMALTTZ
 70
     0
  9
$DIMUPT
 70
     0
  9
$DIMDEC
 70
     2
  9
$DIMTDEC
 70
     2
  9
$DIMALTU
 70
     2
  9
$DIMALTTD
 70
     2
  9
$DIMTXSTY
  7
STANDARD
  9
$DIMAUNIT
 70
     0
  9
$DIMADEC
 70
     2
  9
$DIMALTRND
 40
0.0
  9
$DIMAZIN
 70
     2
  9
$DIMDSEP
 70
    46
  9
$DIMATFIT
 70
     3
  9
$DIMFRAC
 70
     0
  9
$DIMLDRBLK
  1
OPEN
  9
$DIMLUNIT
 70
     2
  9
$DIMLWD
 70
    -2
  9
$DIMLWE
 70
    -2
  9
$DIMTMOVE
 70
     0
  9
$DIMFXL
 40
1.0
  9
$DIMFXLON
 70
     0
  9
$DIMJOGANG
 40
0.7853981633974483
  9
$DIMTFILL
 70
     0
  9
$DIMTFILLCLR
 70
     0
  9
$DIMARCSYM
 70
     1
  9
$DIMLTYPE
  6

  9
$DIMLTEX1
  6

  9
$DIMLTEX2
  6

  9
$DIMTXTDIRECTION
 70
     0
  9
$LUNITS
 70
     2
  9
$LUPREC
 70
     4
  9
$SKETCHINC
 40
1.0
  9
$FILLETRAD
 40
0.5
  9
$AUNITS
 70
     0
  9
$AUPREC
 70
     0
  9
$MENU
  1
acad
  9
$ELEVATION
 40
0.0
  9
$PELEVATION
 40
0.0
  9
$THICKNESS
 40
0.0
  9
$LIMCHECK
 70
     0
  9
$CHAMFERA
 40
10.0
  9
$CHAMFERB
 40
10.0
  9
$CHAMFERC
 40
20.0
  9
$CHAMFERD
 40
0.0
  9
$SKPOLY
 70
     0
  9
$TDCREATE
 40
2458885.666712153
  9
$TDUCREATE
 40
2458885.291712153
  9
$TDUPDATE
 40
2459248.691127674
  9
$TDUUPDATE
 40
2459248.316127674
  9
$TDINDWG
 40
0.5487363773
  9
$TDUSRTIMER
 40
0.5487361458
  9
$USRTIMER
 70
     1
  9
$ANGBASE
 50
0.0
  9
$ANGDIR
 70
     0
  9
$PDMODE
 70
     0
  9
$PDSIZE
 40
0.0
  9
$PLINEWID
 40
0.0
  9
$SPLFRAME
 70
     0
  9
$SPLINETYPE
 70
     6
  9
$SPLINESEGS
 70
     8
  9
$HANDSEED
  5
70E4
  9
$SURFTAB1
 70
     6
  9
$SURFTAB2
 70
     6
  9
$SURFTYPE
 70
     6
  9
$SURFU
 70
     6
  9
$SURFV
 70
     6
  9
$UCSBASE
  2

  9
$UCSNAME
  2

  9
$UCSORG
 10
0.0
 20
0.0
 30
0.0
  9
$UCSXDIR
 10
1.0
 20
0.0
 30
0.0
  9
$UCSYDIR
 10
0.0
 20
1.0
 30
0.0
  9
$UCSORTHOREF
  2

  9
$UCSORTHOVIEW
 70
     0
  9
$UCSORGTOP
 10
0.0
 20
0.0
 30
0.0
  9
$UCSORGBOTTOM
 10
0.0
 20
0.0
 30
0.0
  9
$UCSORGLEFT
 10
0.0
 20
0.0
 30
0.0
  9
$UCSORGRIGHT
 10
0.0
 20
0.0
 30
0.0
  9
$UCSORGFRONT
 10
0.0
 20
0.0
 30
0.0
  9
$UCSORGBACK
 10
0.0
 20
0.0
 30
0.0
  9
$PUCSBASE
  2

  9
$PUCSNAME
  2

  9
$PUCSORG
 10
0.0
 20
0.0
 30
0.0
  9
$PUCSXDIR
 10
1.0
 20
0.0
 30
0.0
  9
$PUCSYDIR
 10
0.0
 20
1.0
 30
0.0
  9
$PUCSORTHOREF
  2

  9
$PUCSORTHOVIEW
 70
     0
  9
$PUCSORGTOP
 10
0.0
 20
0.0
 30
0.0
  9
$PUCSORGBOTTOM
 10
0.0
 20
0.0
 30
0.0
  9
$PUCSORGLEFT
 10
0.0
 20
0.0
 30
0.0
  9
$PUCSORGRIGHT
 10
0.0
 20
0.0
 30
0.0
  9
$PUCSORGFRONT
 10
0.0
 20
0.0
 30
0.0
  9
$PUCSORGBACK
 10
0.0
 20
0.0
 30
0.0
  9
$USERI1
 70
     0
  9
$USERI2
 70
     0
  9
$USERI3
 70
     0
  9
$USERI4
 70
     0
  9
$USERI5
 70
     0
  9
$USERR1
 40
0.0
  9
$USERR2
 40
0.0
  9
$USERR3
 40
0.0
  9
$USERR4
 40
0.0
  9
$USERR5
 40
0.0
  9
$WORLDVIEW
 70
     1
  9
$SHADEDGE
 70
     3
  9
$SHADEDIF
 70
    70
  9
$TILEMODE
 70
     1
  9
$MAXACTVP
 70
    48
  9
$PINSBASE
 10
0.0
 20
0.0
 30
0.0
  9
$PLIMCHECK
 70
     0
  9
$PEXTMIN
 10
1.000000000000000E+20
 20
1.000000000000000E+20
 30
1.000000000000000E+20
  9
$PEXTMAX
 10
-1.000000000000000E+20
 20
-1.000000000000000E+20
 30
-1.000000000000000E+20
  9
$PLIMMIN
 10
0.0
 20
0.0
  9
$PLIMMAX
 10
420.0
 20
297.0
  9
$UNITMODE
 70
     0
  9
$VISRETAIN
 70
     1
  9
$PLINEGEN
 70
     0
  9
$PSLTSCALE
 70
     1
  9
$TREEDEPTH
 70
  3020
  9
$CMLSTYLE
  2
STANDARD
  9
$CMLJUST
 70
     0
  9
$CMLSCALE
 40
20.0
  9
$PROXYGRAPHICS
 70
     1
  9
$MEASUREMENT
 70
     1
  9
$CELWEIGHT
370
    -1
  9
$ENDCAPS
280
     0
  9
$JOINSTYLE
280
     0
  9
$LWDISPLAY
290
     0
  9
$INSUNITS
 70
     0
  9
$HYPERLINKBASE
  1

  9
$STYLESHEET
  1
TAGAI1.CTB
  9
$XEDIT
290
     1
  9
$CEPSNTYPE
380
     0
  9
$PSTYLEMODE
290
     1
  9
$FINGERPRINTGUID
  2
{3129081E-827B-4A98-8CC4-B14B2F8DB633}
  9
$VERSIONGUID
  2
{77A0E1FF-8140-4D5D-A81D-A1346AD49E6A}
  9
$EXTNAMES
290
     1
  9
$PSVPSCALE
 40
0.0
  9
$OLESTARTUP
290
     0
  9
$SORTENTS
280
   127
  9
$INDEXCTL
280
     0
  9
$HIDETEXT
280
     0
  9
$XCLIPFRAME
280
     2
  9
$HALOGAP
280
     0
  9
$OBSCOLOR
 70
   257
  9
$OBSLTYPE
280
     0
  9
$INTERSECTIONDISPLAY
280
     0
  9
$INTERSECTIONCOLOR
 70
   257
  9
$DIMASSOC
280
     1
  9
$PROJECTNAME
  1

  9
$CAMERADISPLAY
290
     0
  9
$LENSLENGTH
 40
50.0
  9
$CAMERAHEIGHT
 40
0.0
  9
$STEPSPERSEC
 40
2.0
  9
$STEPSIZE
 40
6.0
  9
$3DDWFPREC
 40
2.0
  9
$PSOLWIDTH
 40
0.25
  9
$PSOLHEIGHT
 40
4.0
  9
$LOFTANG1
 40
1.570796326794896
  9
$LOFTANG2
 40
1.570796326794896
  9
$LOFTMAG1
 40
0.0
  9
$LOFTMAG2
 40
0.0
  9
$LOFTPARAM
 70
     7
  9
$LOFTNORMALS
280
     1
  9
$LATITUDE
 40
37.795
  9
$LONGITUDE
 40
-122.394
  9
$NORTHDIRECTION
 40
0.0
  9
$TIMEZONE
 70
 -8000
  9
$LIGHTGLYPHDISPLAY
280
     1
  9
$TILEMODELIGHTSYNCH
280
     1
  9
$CMATERIAL
347
287D
  9
$SOLIDHIST
280
     0
  9
$SHOWHIST
280
     1
  9
$DWFFRAME
280
     2
  9
$DGNFRAME
280
     0
  9
$REALWORLDSCALE
290
     1
  9
$INTERFERECOLOR
 62
     1
  9
$INTERFEREOBJVS
345
289F
  9
$INTERFEREVPVS
346
289C
  9
$CSHADOW
280
     0
  9
$SHADOWPLANELOCATION
 40
0.0
  0
ENDSEC
  0
SECTION
  2
CLASSES
  0
CLASS
  1
DICTIONARYVAR
  2
AcDbDictionaryVar
  3
ObjectDBX Classes
 90
        0
 91
       13
280
     0
281
     0
  0
CLASS
  1
ACDBDICTIONARYWDFLT
  2
AcDbDictionaryWithDefault
  3
ObjectDBX Classes
 90
        0
 91
        1
280
     0
281
     0
  0
CLASS
  1
MATERIAL
  2
AcDbMaterial
  3
ObjectDBX Classes
 90
     1153
 91
        3
280
     0
281
     0
  0
CLASS
  1
VISUALSTYLE
  2
AcDbVisualStyle
  3
ObjectDBX Classes
 90
     4095
 91
       24
280
     0
281
     0
  0
CLASS
  1
TABLESTYLE
  2
AcDbTableStyle
  3
ObjectDBX Classes
 90
     4095
 91
        2
280
     0
281
     0
  0
CLASS
  1
SCALE
  2
AcDbScale
  3
ObjectDBX Classes
 90
     1153
 91
       17
280
     0
281
     0
  0
CLASS
  1
MLEADERSTYLE
  2
AcDbMLeaderStyle
  3
ACDB_MLEADERSTYLE_CLASS
 90
     4095
 91
        1
280
     0
281
     0
  0
CLASS
  1
ACDBSECTIONVIEWSTYLE
  2
AcDbSectionViewStyle
  3
ObjectDBX Classes
 90
     1025
 91
        2
280
     0
281
     0
  0
CLASS
  1
ACDBDETAILVIEWSTYLE
  2
AcDbDetailViewStyle
  3
ObjectDBX Classes
 90
     1025
 91
        2
280
     0
281
     0
  0
CLASS
  1
ACAD_EVALUATION_GRAPH
  2
AcDbEvalGraph
  3
ObjectDBX Classes
 90
     1153
 91
        0
280
     0
281
     0
  0
CLASS
  1
ACAECUSTOBJ
  2
AcAeEditorObj
  3
AcAeEditorObj
 90
     1024
 91
        0
280
     0
281
     0
  0
CLASS
  1
SORTENTSTABLE
  2
AcDbSortentsTable
  3
ObjectDBX Classes
 90
        0
 91
        3
280
     0
281
     0
  0
CLASS
  1
ACDB_DYNAMICBLOCKPURGEPREVENTER_VERSION
  2
AcDbDynamicBlockPurgePreventer
  3
ObjectDBX Classes
 90
     1153
 91
        0
280
     0
281
     0
  0
CLASS
  1
CELLSTYLEMAP
  2
AcDbCellStyleMap
  3
ObjectDBX Classes
 90
     1152
 91
        4
280
     0
281
     0
  0
CLASS
  1
ACDBASSOCACTION
  2
AcDbAssocAction
  3
ObjectDBX Classes
 90
     1025
 91
        0
280
     0
281
     0
  0
CLASS
  1
ACDBASSOCARRAYACTIONBODY
  2
AcDbAssocArrayActionBody
  3
ObjectDBX Classes
 90
     1025
 91
        0
280
     0
281
     0
  0
CLASS
  1
ACDBASSOCDEPENDENCY
  2
AcDbAssocDependency
  3
ObjectDBX Classes
 90
     1025
 91
        0
280
     0
281
     0
  0
CLASS
  1
ACDBASSOCVERTEXACTIONPARAM
  2
AcDbAssocVertexActionParam
  3
ObjectDBX Classes
 90
     1025
 91
        0
280
     0
281
     0
  0
CLASS
  1
ACDBASSOCARRAYPOLARPARAMETERS
  2
AcDbAssocArrayPolarParameters
  3
ObjectDBX Classes
 90
     1025
 91
        0
280
     0
281
     0
  0
CLASS
  1
ACDBASSOCNETWORK
  2
AcDbAssocNetwork
  3
ObjectDBX Classes
 90
     1025
 91
        0
280
     0
281
     0
  0
CLASS
  1
ACARRAYJIGENTITY
  2
AcArrayJigEntity
  3
ACAD_ARRAY
 90
      129
 91
        0
280
     0
281
     1
  0
CLASS
  1
ACAD_TABLE
  2
AcDbTable
  3
ObjectDBX Classes
 90
     1025
 91
        2
280
     0
281
     1
  0
CLASS
  1
TABLECONTENT
  2
AcDbTableContent
  3
ObjectDBX Classes
 90
     1152
 91
        2
280
     0
281
     0
  0
CLASS
  1
TABLEGEOMETRY
  2
AcDbTableGeometry
  3
ObjectDBX Classes
 90
     1152
 91
        2
280
     0
281
     0
  0
CLASS
  1
DATATABLE
  2
AcDbDataTable
  3
ObjectDBX Classes
 90
        0
 91
        0
280
     0
281
     0
  0
ENDSEC
  0
SECTION
  2
TABLES
  0
TABLE
  2
VPORT
  5
8
102
{ACAD_XDICTIONARY
360
2AC1
102
}
330
0
100
AcDbSymbolTable
 70
     1
  0
VPORT
  5
287A
330
8
100
AcDbSymbolTableRecord
100
AcDbViewportTableRecord
  2
*Active
 70
     0
 10
0.0
 20
0.0
 11
1.0
 21
1.0
 12
1737.368782597544
 22
640.4580187535071
 13
0.0
 23
0.0
 14
10.0
 24
10.0
 15
10.0
 25
10.0
 16
0.0
 26
0.0
 36
1.0
 17
0.0
 27
0.0
 37
0.0
 40
567.8628046495742
 41
1.865577889447235
 42
50.0
 43
0.0
 44
0.0
 50
0.0
 51
0.0
 71
     0
 72
   100
 73
     1
 74
     1
 75
     0
 76
     0
 77
     0
 78
     0
281
     0
 65
     1
110
0.0
120
0.0
130
0.0
111
1.0
121
0.0
131
0.0
112
0.0
122
1.0
132
0.0
 79
     0
146
0.0
348
289B
 60
     3
 61
     5
292
     1
282
     1
141
0.0
142
0.0
 63
   250
421
  3355443
1001
ACAD_NAV_VCDISPLAY
1070
     3
  0
ENDTAB
  0
TABLE
  2
LTYPE
  5
5
330
0
100
AcDbSymbolTable
 70
     6
  0
LTYPE
  5
12
330
5
100
AcDbSymbolTableRecord
100
AcDbLinetypeTableRecord
  2
BYBLOCK
 70
     0
  3

 72
    65
 73
     0
 40
0.0
  0
LTYPE
  5
13
330
5
100
AcDbSymbolTableRecord
100
AcDbLinetypeTableRecord
  2
BYLAYER
 70
     0
  3

 72
    65
 73
     0
 40
0.0
  0
LTYPE
  5
14
330
5
100
AcDbSymbolTableRecord
100
AcDbLinetypeTableRecord
  2
CONTINUOUS
 70
     0
  3
Solid line
 72
    65
 73
     0
 40
0.0
  0
LTYPE
  5
326
330
5
100
AcDbSymbolTableRecord
100
AcDbLinetypeTableRecord
  2
HIDDEN
 70
     0
  3
Hidden __ __ __ __ __ __ __ __ __ __ __ __ __ _
 72
    65
 73
     2
 40
9.524999999999996
 49
6.349999999999998
 74
     0
 49
-3.174999999999998
 74
     0
  0
LTYPE
  5
328
330
5
100
AcDbSymbolTableRecord
100
AcDbLinetypeTableRecord
  2
PHANTOM
 70
     0
  3
Phantom ______  __  __  ______  __  __  ______
 72
    65
 73
     6
 40
2.5
 49
1.25
 74
     0
 49
-0.25
 74
     0
 49
0.25
 74
     0
 49
-0.25
 74
     0
 49
0.25
 74
     0
 49
-0.25
 74
     0
  0
LTYPE
  5
2949
330
5
100
AcDbSymbolTableRecord
100
AcDbLinetypeTableRecord
  2
GEN7
 70
     0
  3
____ . ____ . ____ . ____ . ____ . ____ . ____
 72
    65
 73
     4
 40
13.75
 49
9.75
 74
     0
 49
-1.5
 74
     0
 49
1.0
 74
     0
 49
-1.5
 74
     0
  0
LTYPE
  5
7054
330
5
100
AcDbSymbolTableRecord
100
AcDbLinetypeTableRecord
  2
CENTER
 70
     0
  3
Center ____ _ ____ _ ____ _ ____ _ ____ _ ____
 72
    65
 73
     4
 40
2.0
 49
1.25
 74
     0
 49
-0.25
 74
     0
 49
0.25
 74
     0
 49
-0.25
 74
     0
  0
ENDTAB
  0
TABLE
  2
LAYER
  5
2
102
{ACAD_XDICTIONARY
360
28D1
102
}
330
0
100
AcDbSymbolTable
 70
    22
  0
LAYER
  5
E
102
{ACAD_XDICTIONARY
360
2AA5
102
}
330
2
100
AcDbSymbolTableRecord
100
AcDbLayerTableRecord
  2
0
 70
     0
 62
     7
  6
CONTINUOUS
370
    -3
390
75D
347
288D
348
0
  0
LAYER
  5
32B
102
{ACAD_XDICTIONARY
360
2B09
102
}
330
2
100
AcDbSymbolTableRecord
100
AcDbLayerTableRecord
  2
DEFPOINTS
 70
     0
 62
     7
  6
CONTINUOUS
290
     0
370
    -3
390
75D
347
288D
348
0
  0
LAYER
  5
294A
102
{ACAD_XDICTIONARY
360
294B
102
}
330
2
100
AcDbSymbolTableRecord
100
AcDbLayerTableRecord
  2
99：枠線
 70
     0
 62
     7
  6
CONTINUOUS
370
    -3
390
75D
347
288D
348
0
  0
LAYER
  5
294C
102
{ACAD_XDICTIONARY
360
294D
102
}
330
2
100
AcDbSymbolTableRecord
100
AcDbLayerTableRecord
  2
3：中心線
 70
     0
 62
     4
  6
GEN7
370
    -3
390
75D
347
288D
348
0
  0
LAYER
  5
294E
102
{ACAD_XDICTIONARY
360
294F
102
}
330
2
100
AcDbSymbolTableRecord
100
AcDbLayerTableRecord
  2
9：寸法線
 70
     0
 62
     3
  6
CONTINUOUS
370
    -3
390
75D
347
288D
348
0
  0
LAYER
  5
2950
102
{ACAD_XDICTIONARY
360
2951
102
}
330
2
100
AcDbSymbolTableRecord
100
AcDbLayerTableRecord
  2
99：Defpoint
 70
     0
 62
    11
  6
CONTINUOUS
290
     0
370
    -3
390
75D
347
288D
348
0
  0
LAYER
  5
2952
102
{ACAD_XDICTIONARY
360
2953
102
}
330
2
100
AcDbSymbolTableRecord
100
AcDbLayerTableRecord
  2
2：副線
 70
     0
 62
     5
  6
CONTINUOUS
370
    -3
390
75D
347
288D
348
0
  0
LAYER
  5
2954
102
{ACAD_XDICTIONARY
360
2955
102
}
330
2
100
AcDbSymbolTableRecord
100
AcDbLayerTableRecord
  2
7：文字
 70
     0
 62
     2
  6
CONTINUOUS
370
    -3
390
75D
347
288D
348
0
  0
LAYER
  5
2956
102
{ACAD_XDICTIONARY
360
2957
102
}
330
2
100
AcDbSymbolTableRecord
100
AcDbLayerTableRecord
  2
4：隠線
 70
     0
 62
     2
  6
HIDDEN
370
    -3
390
75D
347
288D
348
0
  0
LAYER
  5
2958
102
{ACAD_XDICTIONARY
360
2959
102
}
330
2
100
AcDbSymbolTableRecord
100
AcDbLayerTableRecord
  2
6：部品線
 70
     0
 62
     3
  6
CONTINUOUS
370
    -3
390
75D
347
288D
348
0
  0
LAYER
  5
295A
102
{ACAD_XDICTIONARY
360
295B
102
}
330
2
100
AcDbSymbolTableRecord
100
AcDbLayerTableRecord
  2
5：想像線
 70
     0
 62
     6
  6
PHANTOM
370
    -3
390
75D
347
288D
348
0
  0
LAYER
  5
295C
102
{ACAD_XDICTIONARY
360
295D
102
}
330
2
100
AcDbSymbolTableRecord
100
AcDbLayerTableRecord
  2
8：ﾊｯﾁﾝｸﾞ線
 70
     0
 62
     1
  6
CONTINUOUS
370
    -3
390
75D
347
288D
348
0
  0
LAYER
  5
295E
102
{ACAD_XDICTIONARY
360
295F
102
}
330
2
100
AcDbSymbolTableRecord
100
AcDbLayerTableRecord
  2
1：主線
 70
     0
 62
     7
  6
CONTINUOUS
370
    -3
390
75D
347
288D
348
0
  0
LAYER
  5
2960
102
{ACAD_XDICTIONARY
360
2961
102
}
330
2
100
AcDbSymbolTableRecord
100
AcDbLayerTableRecord
  2
99：構築線
 70
     0
 62
   251
  6
CONTINUOUS
370
    -3
390
75D
347
288D
348
0
1001
AcAecLayerStandard
1000

1000

1001
AcCmTransparency
1071
        0
  0
LAYER
  5
4AE3
102
{ACAD_XDICTIONARY
360
4AE4
102
}
330
2
100
AcDbSymbolTableRecord
100
AcDbLayerTableRecord
  2
IMAGINE
 70
     0
 62
     6
  6
PHANTOM
370
    -3
390
75D
347
288D
348
0
  0
LAYER
  5
4AE5
102
{ACAD_XDICTIONARY
360
4AE6
102
}
330
2
100
AcDbSymbolTableRecord
100
AcDbLayerTableRecord
  2
OBJECT1
 70
     0
 62
     7
  6
CONTINUOUS
370
    -3
390
75D
347
288D
348
0
  0
LAYER
  5
4DE4
330
2
100
AcDbSymbolTableRecord
100
AcDbLayerTableRecord
  2
可視
 70
     0
 62
     7
  6
CONTINUOUS
370
    50
390
75D
347
288D
348
0
  0
LAYER
  5
4DE5
330
2
100
AcDbSymbolTableRecord
100
AcDbLayerTableRecord
  2
細線
 70
     0
 62
     7
  6
CONTINUOUS
370
    35
390
75D
347
288D
348
0
  0
LAYER
  5
7055
102
{ACAD_XDICTIONARY
360
7056
102
}
330
2
100
AcDbSymbolTableRecord
100
AcDbLayerTableRecord
  2
CENTER
 70
     0
 62
     4
  6
CENTER
370
    -3
390
75D
347
288D
348
0
  0
LAYER
  5
7057
102
{ACAD_XDICTIONARY
360
7058
102
}
330
2
100
AcDbSymbolTableRecord
100
AcDbLayerTableRecord
  2
PARTS
 70
     0
 62
     3
  6
CONTINUOUS
370
    -3
390
75D
347
288D
348
0
  0
LAYER
  5
7059
102
{ACAD_XDICTIONARY
360
705A
102
}
330
2
100
AcDbSymbolTableRecord
100
AcDbLayerTableRecord
  2
DIM
 70
     0
 62
     1
  6
CONTINUOUS
370
    -3
390
75D
347
288D
348
0
  0
LAYER
  5
705B
102
{ACAD_XDICTIONARY
360
705C
102
}
330
2
100
AcDbSymbolTableRecord
100
AcDbLayerTableRecord
  2
HIDE
 70
     0
 62
     2
  6
HIDDEN
370
    -3
390
75D
347
288D
348
0
  0
ENDTAB
  0
TABLE
  2
STYLE
  5
3
330
0
100
AcDbSymbolTable
 70
     3
  0
STYLE
  5
F
330
3
100
AcDbSymbolTableRecord
100
AcDbTextStyleTableRecord
  2
STANDARD
 70
     0
 40
24.0
 41
1.0
 50
0.0
 71
     0
 42
24.0
  3
isocp.shx
  4
bigfont.shx
  0
STYLE
  5
333
330
3
100
AcDbSymbolTableRecord
100
AcDbTextStyleTableRecord
  2
JX_FONT
 70
     0
 40
1.0
 41
1.0
 50
0.0
 71
     0
 42
1.0
  3
monotxt
  4
bigfont
  0
STYLE
  5
4D26
330
3
100
AcDbSymbolTableRecord
100
AcDbTextStyleTableRecord
  2
スタイル1
 70
     0
 40
10.0
 41
1.0
 50
0.0
 71
     0
 42
10.0
  3
isocp.shx
  4
bigfont.shx
  0
ENDTAB
  0
TABLE
  2
VIEW
  5
6
330
0
100
AcDbSymbolTable
 70
     0
  0
ENDTAB
  0
TABLE
  2
UCS
  5
7
330
0
100
AcDbSymbolTable
 70
     0
  0
ENDTAB
  0
TABLE
  2
APPID
  5
9
330
0
100
AcDbSymbolTable
 70
    22
  0
APPID
  5
10
330
9
100
AcDbSymbolTableRecord
100
AcDbRegAppTableRecord
  2
ACAD
 70
     0
  0
APPID
  5
24
330
9
100
AcDbSymbolTableRecord
100
AcDbRegAppTableRecord
  2
CONTENTTABDATA
 70
     0
  0
APPID
  5
25
330
9
100
AcDbSymbolTableRecord
100
AcDbRegAppTableRecord
  2
CONTENTCURRENTTAB
 70
     0
  0
APPID
  5
28D7
330
9
100
AcDbSymbolTableRecord
100
AcDbRegAppTableRecord
  2
ACAD_NAV_VCDISPLAY
 70
     0
  0
APPID
  5
2945
330
9
100
AcDbSymbolTableRecord
100
AcDbRegAppTableRecord
  2
ACAUTHENVIRON
 70
     0
  0
APPID
  5
2963
330
9
100
AcDbSymbolTableRecord
100
AcDbRegAppTableRecord
  2
ACAD_PSEXT
 70
     0
  0
APPID
  5
2964
330
9
100
AcDbSymbolTableRecord
100
AcDbRegAppTableRecord
  2
ACAD_DSTYLE_DIMJAG
 70
     0
  0
APPID
  5
2965
330
9
100
AcDbSymbolTableRecord
100
AcDbRegAppTableRecord
  2
ACAD_DSTYLE_DIMTALN
 70
     0
  0
APPID
  5
2966
330
9
100
AcDbSymbolTableRecord
100
AcDbRegAppTableRecord
  2
AcAecLayerStandard
 70
     0
  0
APPID
  5
2967
330
9
100
AcDbSymbolTableRecord
100
AcDbRegAppTableRecord
  2
AcCmTransparency
 70
     0
  0
APPID
  5
298A
330
9
100
AcDbSymbolTableRecord
100
AcDbRegAppTableRecord
  2
AcDbDynamicBlockTrueName
 70
     0
  0
APPID
  5
298B
330
9
100
AcDbSymbolTableRecord
100
AcDbRegAppTableRecord
  2
AcDbDynamicBlockGUID
 70
     0
  0
APPID
  5
2A47
330
9
100
AcDbSymbolTableRecord
100
AcDbRegAppTableRecord
  2
ACAD_EXEMPT_FROM_CAD_STANDARDS
 70
     0
  0
APPID
  5
2AC3
330
9
100
AcDbSymbolTableRecord
100
AcDbRegAppTableRecord
  2
ACAD_DSTYLE_DIMARC_LENGTH_SYMBOL
 70
     0
  0
APPID
  5
2AFD
330
9
100
AcDbSymbolTableRecord
100
AcDbRegAppTableRecord
  2
ACAD_MLEADERVER
 70
     0
  0
APPID
  5
2C47
330
9
100
AcDbSymbolTableRecord
100
AcDbRegAppTableRecord
  2
AcadAnnoPO
 70
     0
  0
APPID
  5
2C5A
330
9
100
AcDbSymbolTableRecord
100
AcDbRegAppTableRecord
  2
ACAD_DSTYLE_DIMRADIAL_EXTENSION
 70
     0
  0
APPID
  5
2C67
330
9
100
AcDbSymbolTableRecord
100
AcDbRegAppTableRecord
  2
AcadAnnoMonitorAlertIconDisabled
 70
     0
  0
APPID
  5
369A
330
9
100
AcDbSymbolTableRecord
100
AcDbRegAppTableRecord
  2
ACAD_DSTYLE_DIMBREAK
 70
     0
  0
APPID
  5
369B
330
9
100
AcDbSymbolTableRecord
100
AcDbRegAppTableRecord
  2
ACAD_MODELDOC_XFORM
 70
     0
  0
APPID
  5
45A9
330
9
100
AcDbSymbolTableRecord
100
AcDbRegAppTableRecord
  2
GradientColor1ACI
 70
     0
  0
APPID
  5
45AA
330
9
100
AcDbSymbolTableRecord
100
AcDbRegAppTableRecord
  2
GradientColor2ACI
 70
     0
  0
ENDTAB
  0
TABLE
  2
DIMSTYLE
  5
A
330
0
100
AcDbSymbolTable
 70
     6
100
AcDbDimStyleTable
 71
     1
340
1D
  0
DIMSTYLE
105
1D
330
A
100
AcDbSymbolTableRecord
100
AcDbDimStyleTableRecord
  2
×1
 70
     0
 40
8.0
 41
2.5
 42
1.25
 43
7.0
 44
1.0
 73
     0
 74
     0
 77
     3
 78
     8
 79
     2
 90
     1
140
3.5
141
0.0
147
1.0
172
     1
173
     1
176
     1
177
     1
178
     2
179
     2
271
     2
272
     2
340
F
341
36
343
36
344
36
1001
ACAD_DSTYLE_DIMJAG
1070
   388
1040
1.5
1001
ACAD_DSTYLE_DIMTALN
1070
   392
1070
     0
  0
DIMSTYLE
105
4D27
330
A
100
AcDbSymbolTableRecord
100
AcDbDimStyleTableRecord
  2
×1.25
 70
     0
 40
5.0
 41
2.5
 42
1.0
 43
6.0
 44
1.5
 73
     0
 74
     0
 77
     3
 78
     8
 79
     2
 90
     1
140
15.0
141
0.0
144
1.25
147
1.0
172
     1
173
     1
176
     1
177
     1
178
     1
179
     2
271
     2
272
     2
340
F
341
36
343
36
344
36
1001
ACAD_DSTYLE_DIMBREAK
1070
   391
1040
3.75
1001
ACAD_DSTYLE_DIMJAG
1070
   388
1040
1.5
1001
ACAD_DSTYLE_DIMTALN
1070
   392
1070
     0
  0
DIMSTYLE
105
4DE6
330
A
100
AcDbSymbolTableRecord
100
AcDbDimStyleTableRecord
  2
ISO-25
 70
     0
  4
in
 41
3.5
 42
2.0
 43
9.899494936611663
 44
2.0
 47
0.1
 48
0.1000000001
 73
     0
 74
     0
 77
     1
 78
    12
 79
     3
140
3.5
141
0.0
143
0.0393701
146
0.7140000000000001
147
1.5
171
     4
172
     1
176
   256
177
   256
178
   256
179
     2
271
     2
272
     2
274
     4
283
     0
284
    12
285
    12
286
    12
340
F
1001
ACAD_DSTYLE_DIMBREAK
1070
   391
1040
3.5
1001
ACAD_DSTYLE_DIMJAG
1070
   388
1040
1.5
1001
ACAD_DSTYLE_DIMTALN
1070
   392
1070
     1
  0
DIMSTYLE
105
5945
330
A
100
AcDbSymbolTableRecord
100
AcDbDimStyleTableRecord
  2
Standard
 70
     0
340
F
  0
DIMSTYLE
105
705D
330
A
100
AcDbSymbolTableRecord
100
AcDbDimStyleTableRecord
  2
STANDARDX2
 70
     0
 40
15.0
 41
2.5
 42
1.25
 43
7.0
 44
1.25
 73
     0
 74
     0
 77
     3
 78
     8
 79
     2
140
3.0
141
3.0
144
0.5
147
1.0
172
     1
173
     1
176
     1
177
     1
178
     1
179
     2
271
     2
272
     2
289
     0
340
F
341
36
343
36
344
36
1001
ACAD_DSTYLE_DIMJAG
1070
   388
1040
1.5
1001
ACAD_DSTYLE_DIMTALN
1070
   392
1070
     0
  0
DIMSTYLE
105
70D3
330
A
100
AcDbSymbolTableRecord
100
AcDbDimStyleTableRecord
  2
STANDARD++$0
 70
     0
 40
2.0
 41
2.5
 42
1.0
 43
7.0
 44
1.0
 73
     0
 74
     0
 77
     1
 78
     8
140
3.0
141
0.0
147
1.25
172
     1
176
     1
177
     1
178
     2
340
F
341
36
342
36
1001
ACAD_DSTYLE_DIMBREAK
1070
   391
1040
3.75
1001
ACAD_DSTYLE_DIMJAG
1070
   388
1040
1.5
1001
ACAD_DSTYLE_DIMTALN
1070
   392
1070
     0
  0
ENDTAB
  0
TABLE
  2
BLOCK_RECORD
  5
1
330
0
100
AcDbSymbolTable
 70
    20
  0
BLOCK_RECORD
  5
18
102
{ACAD_XDICTIONARY
360
2C42
102
}
330
1
100
AcDbSymbolTableRecord
100
AcDbBlockTableRecord
  2
*MODEL_SPACE
340
760
 70
     0
280
     1
281
     0
  0
BLOCK_RECORD
  5
15
330
1
100
AcDbSymbolTableRecord
100
AcDbBlockTableRecord
  2
*PAPER_SPACE
340
761
 70
     0
280
     1
281
     0
  0
BLOCK_RECORD
  5
36
330
1
100
AcDbSymbolTableRecord
100
AcDbBlockTableRecord
  2
_OPEN
340
0
102
{BLKREFS
331
7035
331
7036
331
7041
331
7042
331
704D
331
704E
331
6A01
331
6A09
331
6A0A
331
6A12
331
6A13
331
6A1B
331
6A1C
331
6A34
331
6A35
331
6C2F
331
6C30
331
69C5
331
69C6
331
69CE
331
69CF
331
69D7
331
69D8
331
69F6
102
}
 70
     0
280
     1
281
     0
  0
BLOCK_RECORD
  5
280B
102
{ACAD_XDICTIONARY
360
6F8D
102
}
330
1
100
AcDbSymbolTableRecord
100
AcDbBlockTableRecord
  2
INABA_A3N
340
0
310
2800000020000000200000000100080000000000000400000000000000000000000000000000000000000000000080000080000000808000800000008000800080800000C0C0C000C0DCC000F0CAA6000020400000206000002080000020A0000020C0000020E00000400000004020000040400000406000004080000040A0
310
000040C0000040E00000600000006020000060400000606000006080000060A0000060C0000060E00000800000008020000080400000806000008080000080A0000080C0000080E00000A0000000A0200000A0400000A0600000A0800000A0A00000A0C00000A0E00000C0000000C0200000C0400000C0600000C0800000C0
310
A00000C0C00000C0E00000E0000000E0200000E0400000E0600000E0800000E0A00000E0C00000E0E00040000000400020004000400040006000400080004000A0004000C0004000E00040200000402020004020400040206000402080004020A0004020C0004020E000404000004040200040404000404060004040800040
310
40A0004040C0004040E00040600000406020004060400040606000406080004060A0004060C0004060E00040800000408020004080400040806000408080004080A0004080C0004080E00040A0000040A0200040A0400040A0600040A0800040A0A00040A0C00040A0E00040C0000040C0200040C0400040C0600040C08000
310
40C0A00040C0C00040C0E00040E0000040E0200040E0400040E0600040E0800040E0A00040E0C00040E0E00080000000800020008000400080006000800080008000A0008000C0008000E00080200000802020008020400080206000802080008020A0008020C0008020E00080400000804020008040400080406000804080
310
008040A0008040C0008040E00080600000806020008060400080606000806080008060A0008060C0008060E00080800000808020008080400080806000808080008080A0008080C0008080E00080A0000080A0200080A0400080A0600080A0800080A0A00080A0C00080A0E00080C0000080C0200080C0400080C0600080C0
310
800080C0A00080C0C00080C0E00080E0000080E0200080E0400080E0600080E0800080E0A00080E0C00080E0E000C0000000C0002000C0004000C0006000C0008000C000A000C000C000C000E000C0200000C0202000C0204000C0206000C0208000C020A000C020C000C020E000C0400000C0402000C0404000C0406000C0
310
408000C040A000C040C000C040E000C0600000C0602000C0604000C0606000C0608000C060A000C060C000C060E000C0800000C0802000C0804000C0806000C0808000C080A000C080C000C080E000C0A00000C0A02000C0A04000C0A06000C0A08000C0A0A000C0A0C000C0A0E000C0C00000C0C02000C0C04000C0C06000
310
C0C08000C0C0A000F0FBFF00A4A0A000808080000000FF0000FF000000FFFF00FF000000FF00FF00FFFF0000FFFFFF0000000000000000000000000000000000000000000000000000000000000000000000000000000000000000000000000000000000000000000000000000000000000000000000000000000000000000
310
000000000000000000000000000000000000000000000000000000000000000000000000000000000000000000000000000000000000000000000000000000000000000000000000000000000000000000000000000000000000000000000000000000000000000000000000000000000000A2FFA2A2A2A2A2A2A2A2A2A2A2
310
A2A2A2FFA2FFFFFFFFFFA2A2FFA2A2FFA20000A2FFFFFF000000000000000000000000FFFFFFFFFFFFFFFFFFFFFFFFFFA20000A2FFFFFF000000000000000000000000FFFFFFFFFFFFFFFFFFFFFFFFFFA20000A2FFFFFF000000000000000000000000000000000000000000000000FFA20000A2FFFFFF0000000000000000
310
00000000000000000000000000000000FFA20000A2FF0000000000000000000000000000000000000000000000000000FFA20000A2FF0000000000000000000000000000000000000000000000000000FFA20000A2FF0000000000000000000000000000000000000000000000000000FFA20000A2FF000000000000000000
310
0000000000000000000000000000000000FFA20000A2FF0000000000000000000000000000000000000000000000000000FFA20000A2FF0000000000000000000000000000000000000000000000000000FFA20000A2FF0000000000000000000000000000000000000000000000000000FFA20000A2FF0000000000000000
310
000000000000000000000000000000000000FFA20000A2FF0000000000000000000000000000000000000000000000000000FFA20000A2FF0000000000000000000000000000000000000000000000000000FFA20000A2FF0000000000000000000000000000000000000000000000000000FFA20000A2FF00000000000000
310
00000000000000000000000000000000000000FFA20000A2FF0000000000000000000000000000000000000000000000000000FFA20000A2FF0000000000000000000000000000000000000000000000000000FFA20000A2FFA2A2A2A2A2A2A2A2A2A2A2A2A2A2A2A2A2A2A2A2A2A2A2A2A2A2FFA200000000000000000000
310
00000000000000000000000000000000000000000000000000000000000000000000000000000000000000000000000000000000000000000000000000000000000000000000000000000000000000000000000000000000000000000000000000000000000000000000000000000000000000000000000000000000000000
310
0000000000000000000000000000000000000000000000000000000000000000000000000000000000000000000000000000000000000000
 70
     4
280
     1
281
     0
1001
AcDbDynamicBlockGUID
1000
{CEC9E870-6CB6-4083-AB86-AF130E1326A6}
  0
BLOCK_RECORD
  5
45D2
330
1
100
AcDbSymbolTableRecord
100
AcDbBlockTableRecord
  2
*D2
340
0
 70
     0
280
     1
281
     0
  0
BLOCK_RECORD
  5
45DF
330
1
100
AcDbSymbolTableRecord
100
AcDbBlockTableRecord
  2
*D3
340
0
 70
     0
280
     1
281
     0
  0
BLOCK_RECORD
  5
45F5
330
1
100
AcDbSymbolTableRecord
100
AcDbBlockTableRecord
  2
*D4
340
0
 70
     0
280
     1
281
     0
  0
BLOCK_RECORD
  5
4602
330
1
100
AcDbSymbolTableRecord
100
AcDbBlockTableRecord
  2
*D5
340
0
 70
     0
280
     1
281
     0
  0
BLOCK_RECORD
  5
46D1
330
1
100
AcDbSymbolTableRecord
100
AcDbBlockTableRecord
  2
*D6
340
0
 70
     0
280
     1
281
     0
  0
BLOCK_RECORD
  5
68FB
330
1
100
AcDbSymbolTableRecord
100
AcDbBlockTableRecord
  2
*D9
340
0
 70
     0
280
     1
281
     0
  0
BLOCK_RECORD
  5
690A
330
1
100
AcDbSymbolTableRecord
100
AcDbBlockTableRecord
  2
*D10
340
0
 70
     0
280
     1
281
     0
  0
BLOCK_RECORD
  5
6931
330
1
100
AcDbSymbolTableRecord
100
AcDbBlockTableRecord
  2
_DotSmall
340
0
102
{BLKREFS
331
6A00
331
69F5
102
}
 70
     0
280
     1
281
     0
  0
BLOCK_RECORD
  5
694C
330
1
100
AcDbSymbolTableRecord
100
AcDbBlockTableRecord
  2
*D12
340
0
 70
     0
280
     1
281
     0
  0
BLOCK_RECORD
  5
6972
330
1
100
AcDbSymbolTableRecord
100
AcDbBlockTableRecord
  2
*D13
340
0
 70
     0
280
     1
281
     0
  0
BLOCK_RECORD
  5
697F
330
1
100
AcDbSymbolTableRecord
100
AcDbBlockTableRecord
  2
*D14
340
0
 70
     0
280
     1
281
     0
  0
BLOCK_RECORD
  5
7030
330
1
100
AcDbSymbolTableRecord
100
AcDbBlockTableRecord
  2
*D15
340
0
 70
     0
280
     1
281
     0
  0
BLOCK_RECORD
  5
703C
330
1
100
AcDbSymbolTableRecord
100
AcDbBlockTableRecord
  2
*D16
340
0
 70
     0
280
     1
281
     0
  0
BLOCK_RECORD
  5
7048
330
1
100
AcDbSymbolTableRecord
100
AcDbBlockTableRecord
  2
*D17
340
0
 70
     0
280
     1
281
     0
  0
BLOCK_RECORD
  5
705E
102
{ACAD_XDICTIONARY
360
70CF
102
}
330
1
100
AcDbSymbolTableRecord
100
AcDbBlockTableRecord
  2
A$C00F36288
340
0
 70
     0
280
     1
281
     0
  0
ENDTAB
  0
ENDSEC
  0
SECTION
  2
BLOCKS
  0
BLOCK
  5
19
330
18
100
AcDbEntity
  8
0
100
AcDbBlockBegin
  2
*MODEL_SPACE
 70
     0
 10
0.0
 20
0.0
 30
0.0
  3
*MODEL_SPACE
  1

  0
ENDBLK
  5
1A
330
18
100
AcDbEntity
  8
0
100
AcDbBlockEnd
  0
BLOCK
  5
16
330
15
100
AcDbEntity
 67
     1
  8
0
100
AcDbBlockBegin
  2
*PAPER_SPACE
 70
     0
 10
0.0
 20
0.0
 30
0.0
  3
*PAPER_SPACE
  1

  0
ENDBLK
  5
17
330
15
100
AcDbEntity
 67
     1
  8
0
100
AcDbBlockEnd
  0
BLOCK
  5
3A
330
36
100
AcDbEntity
  8
0
 48
0.3
100
AcDbBlockBegin
  2
_OPEN
 70
     0
 10
0.0
 20
0.0
 30
0.0
  3
_OPEN
  1

  0
LINE
  5
37
330
36
100
AcDbEntity
  8
0
  6
ByBlock
 62
     0
 48
0.3
100
AcDbLine
 10
-1.0
 20
0.1666666666666666
 30
0.0
 11
0.0
 21
0.0
 31
0.0
  0
LINE
  5
38
330
36
100
AcDbEntity
  8
0
  6
ByBlock
 62
     0
 48
0.3
100
AcDbLine
 10
0.0
 20
0.0
 30
0.0
 11
-1.0
 21
-0.1666666666666666
 31
0.0
  0
LINE
  5
39
330
36
100
AcDbEntity
  8
0
  6
ByBlock
 62
     0
 48
0.3
100
AcDbLine
 10
0.0
 20
0.0
 30
0.0
 11
-1.0
 21
0.0
 31
0.0
  0
ENDBLK
  5
3B
330
36
100
AcDbEntity
  8
0
 48
0.3
100
AcDbBlockEnd
  0
BLOCK
  5
280C
330
280B
100
AcDbEntity
  8
0
100
AcDbBlockBegin
  2
INABA_A3N
 70
     2
 10
0.0
 20
0.0
 30
0.0
  3
INABA_A3N
  1

  0
ATTDEF
  5
6F33
330
280B
100
AcDbEntity
  8
99：枠線
100
AcDbText
 10
306.6727276417195
 20
19.66393622387111
 30
0.0
 40
2.799999999999998
  1
田上
 72
     4
 11
309.7527276417195
 21
21.06393622387111
 31
0.0
100
AcDbAttributeDefinition
280
     0
  3
尺度
  2
SCALE
 70
     0
280
     0
  0
SOLID
  5
6F34
330
280B
100
AcDbEntity
  8
99：枠線
100
AcDbTrace
 10
13.62859074716996
 20
278.6638637520214
 30
0.0
 11
14.12783428387465
 21
278.1646202153167
 31
0.0
 12
394.0521657161253
 22
278.6638637520214
 32
0.0
 13
393.5529221794207
 23
278.1646202153167
 33
0.0
  0
SOLID
  5
6F35
330
280B
100
AcDbEntity
  8
99：枠線
100
AcDbTrace
 10
394.0521657161253
 20
7.075379784683192
 30
0.0
 11
393.5529221794207
 21
7.574623321387846
 31
0.0
 12
13.62859074716996
 22
7.075379784683192
 32
0.0
 13
14.12783428387465
 23
7.574623321387846
 33
0.0
  0
LWPOLYLINE
  5
6F36
330
280B
100
AcDbEntity
  8
99：Defpoint
 62
   137
100
AcDbPolyline
 90
        4
 70
     1
 43
0.0
 10
0.0
 20
0.0
 10
408.18
 20
0.0
 10
408.18
 20
285.2399999999999
 10
0.0
 20
285.2399999999999
  0
SOLID
  5
6F37
330
280B
100
AcDbEntity
  8
99：枠線
100
AcDbTrace
 10
13.62859074716996
 20
7.075379784683192
 30
0.0
 11
14.12783428387465
 21
7.574623321387846
 31
0.0
 12
13.62859074716996
 22
278.6638637520214
 32
0.0
 13
14.12783428387465
 23
278.1646202153167
 33
0.0
  0
SOLID
  5
6F38
330
280B
100
AcDbEntity
  8
99：枠線
100
AcDbTrace
 10
394.0521657161253
 20
278.6638637520214
 30
0.0
 11
393.5529221794207
 21
278.1646202153167
 31
0.0
 12
394.0521657161253
 22
7.075379784683192
 32
0.0
 13
393.5529221794207
 23
7.574623321387846
 33
0.0
  0
TEXT
  5
6F39
330
280B
100
AcDbEntity
  8
99：枠線
100
AcDbText
 10
324.8868451794208
 20
33.25460432138785
 30
0.0
 40
2.0
  1
TITLE
 41
0.8678571428570782
  7
JX_FONT
 72
     5
 11
332.9868451794202
 21
33.25460432138785
 31
0.0
100
AcDbText
  0
TEXT
  5
6F3A
330
280B
100
AcDbEntity
  8
99：枠線
100
AcDbText
 10
329.1893971794209
 20
19.19967632138783
 30
0.0
 40
2.0
  1
DRAWNING NO.
 41
1.156069306358364
 72
     5
 11
349.1893961794206
 21
19.19967632138783
 31
0.0
100
AcDbText
  0
LINE
  5
6F3B
330
280B
100
AcDbEntity
  8
99：枠線
100
AcDbLine
 10
223.5529221794205
 20
37.57462332138786
 30
0.0
 11
393.5529221794206
 21
37.57462332138786
 31
0.0
  0
LINE
  5
6F3C
330
280B
100
AcDbEntity
  8
99：枠線
100
AcDbLine
 10
317.5529221794207
 20
22.57462332138786
 30
0.0
 11
393.5529221794206
 21
22.57462332138786
 31
0.0
  0
LINE
  5
6F3D
330
280B
100
AcDbEntity
  8
99：枠線
100
AcDbLine
 10
223.5529221794205
 20
22.57462332138786
 30
0.0
 11
302.5529221794205
 21
22.57462332138786
 31
0.0
  0
LINE
  5
6F3E
330
280B
100
AcDbEntity
  8
99：枠線
100
AcDbLine
 10
263.0529221794205
 20
33.57462332138786
 30
0.0
 11
223.5529221794205
 21
33.57462332138786
 31
0.0
  0
TEXT
  5
6F3F
330
280B
100
AcDbEntity
  8
99：枠線
100
AcDbText
 10
249.1644646134095
 20
10.32355232138771
 30
0.0
 40
2.0
  1
INABA ELECTRIC WORK CO., LTD.
 41
1.252231573578152
 72
     5
 11
298.2644646134089
 21
10.32355232138771
 31
0.0
100
AcDbText
  0
TEXT
  5
6F40
330
280B
100
AcDbEntity
  8
99：枠線
100
AcDbText
 10
247.5647041418997
 20
15.21551532138774
 30
0.0
 40
4.0
  1
株式会社 因幡電機製作所
 41
0.9789911996157989
  7
JX_FONT
 72
     5
 11
300.5607610811016
 21
15.21551532138774
 31
0.0
100
AcDbText
  0
LINE
  5
6F41
330
280B
100
AcDbEntity
  8
99：枠線
100
AcDbLine
 10
223.5529221794205
 20
7.574623321387846
 30
0.0
 11
223.5529221794205
 21
37.57462332138786
 31
0.0
  0
TEXT
  5
6F42
330
280B
100
AcDbEntity
  8
99：枠線
100
AcDbText
 10
229.4729194180687
 20
34.19967632138783
 30
0.0
 40
2.0
  1
APPROVED BY
 41
0.7606486127167564
 72
     5
 11
242.6321404180686
 21
34.19967632138783
 31
0.0
100
AcDbText
  0
LINE
  5
6F43
330
280B
100
AcDbEntity
  8
99：枠線
100
AcDbLine
 10
234.6252691861415
 20
16.22257502528505
 30
0.0
 11
236.5903966861416
 21
13.41608402528523
 31
0.0
  0
LINE
  5
6F44
330
280B
100
AcDbEntity
  8
99：枠線
100
AcDbLine
 10
226.8555766861415
 20
16.49800502528542
 30
0.0
 11
230.1778321861422
 21
13.48416302528524
 31
0.0
  0
LINE
  5
6F45
330
280B
100
AcDbEntity
  8
99：枠線
100
AcDbLine
 10
225.6601150352636
 20
16.56608402528509
 30
0.0
 11
225.6601150352636
 21
13.41608402528523
 31
0.0
  0
LINE
  5
6F46
330
280B
100
AcDbEntity
  8
99：枠線
100
AcDbLine
 10
226.4167036861414
 20
13.41608402528523
 30
0.0
 11
226.4167036861414
 21
16.30358402528516
 31
0.0
  0
ARC
  5
6F47
330
280B
100
AcDbEntity
  8
99：枠線
100
AcDbCircle
 10
226.6792036861417
 20
16.30358402528516
 30
0.0
 40
0.2625
100
AcDbArc
 50
44.99999999999971
 51
180.0
  0
LINE
  5
6F48
330
280B
100
AcDbEntity
  8
99：枠線
100
AcDbLine
 10
230.6167036861417
 20
13.67858402528516
 30
0.0
 11
230.6167036861417
 21
16.56608402528509
 31
0.0
  0
LINE
  5
6F49
330
280B
100
AcDbEntity
  8
99：枠線
100
AcDbLine
 10
233.3055226861412
 20
16.22257502528505
 30
0.0
 11
231.3403966861416
 21
13.41608402528523
 31
0.0
  0
ARC
  5
6F4A
330
280B
100
AcDbEntity
  8
99：枠線
100
AcDbCircle
 10
230.3542036861415
 20
13.67858402528516
 30
0.0
 40
0.2625
100
AcDbArc
 50
227.7867300000003
 51
0.0
  0
ARC
  5
6F4B
330
280B
100
AcDbEntity
  8
99：枠線
100
AcDbCircle
 10
233.9653966861416
 20
15.76052702528518
 30
0.0
 40
0.8055569999999999
100
AcDbArc
 50
34.99999999999984
 51
145.0000000000001
  0
LINE
  5
6F4C
330
280B
100
AcDbEntity
  8
99：枠線
100
AcDbLine
 10
233.9653966861416
 20
15.25412852528525
 30
0.0
 11
235.8390631861417
 21
16.56608402528509
 31
0.0
  0
TEXT
  5
6F4D
330
280B
100
AcDbEntity
  8
99：枠線
100
AcDbText
 10
224.8064931794207
 20
34.19967632138783
 30
0.0
 40
2.5
  1
承認
 41
0.75
  7
JX_FONT
 72
     5
 11
228.8064931794207
 21
34.19967632138783
 31
0.0
100
AcDbText
  0
LINE
  5
6F4E
330
280B
100
AcDbEntity
  8
99：枠線
100
AcDbLine
 10
263.0529221794205
 20
37.57462332138786
 30
0.0
 11
263.0529221794205
 21
22.57462332138786
 31
0.0
  0
LINE
  5
6F4F
330
280B
100
AcDbEntity
  8
99：枠線
100
AcDbLine
 10
243.3029221794205
 20
22.57462332138786
 30
0.0
 11
243.3029221794205
 21
37.57462332138786
 31
0.0
  0
ARC
  5
6F50
330
280B
100
AcDbEntity
  8
99：枠線
100
AcDbCircle
 10
243.4792036861414
 20
15.76052702528518
 30
0.0
 40
0.8055569999999999
100
AcDbArc
 50
34.99999999999984
 51
145.0000000000001
  0
LINE
  5
6F51
330
280B
100
AcDbEntity
  8
99：枠線
100
AcDbLine
 10
243.4792036861414
 20
15.25412852528525
 30
0.0
 11
245.3528701861416
 21
16.56608402528509
 31
0.0
  0
LINE
  5
6F52
330
280B
100
AcDbEntity
  8
99：枠線
100
AcDbLine
 10
237.1792036861417
 20
16.56608402528509
 30
0.0
 11
237.1792036861417
 21
13.41608402528523
 31
0.0
  0
LINE
  5
6F53
330
280B
100
AcDbEntity
  8
99：枠線
100
AcDbLine
 10
240.8542036861414
 20
13.41608402528523
 30
0.0
 11
242.8193311861416
 21
16.22257502528505
 31
0.0
  0
ARC
  5
6F54
330
280B
100
AcDbEntity
  8
99：枠線
100
AcDbCircle
 10
239.557611186142
 20
14.20358402528536
 30
0.0
 40
0.7875000000000001
100
AcDbArc
 50
270.0
 51
51.39531799999993
  0
LINE
  5
6F55
330
280B
100
AcDbEntity
  8
99：枠線
100
AcDbLine
 10
237.1792036861417
 20
13.41608402528523
 30
0.0
 11
239.557611186142
 21
13.41608402528523
 31
0.0
  0
ARC
  5
6F56
330
280B
100
AcDbEntity
  8
99：枠線
100
AcDbCircle
 10
239.557611186142
 20
15.7785840252853
 30
0.0
 40
0.7875000000000001
100
AcDbArc
 50
270.0
 51
90.0
  0
LINE
  5
6F57
330
280B
100
AcDbEntity
  8
99：枠線
100
AcDbLine
 10
238.754203686142
 20
14.99108402528516
 30
0.0
 11
239.557611186142
 21
14.99108402528516
 31
0.0
  0
LINE
  5
6F58
330
280B
100
AcDbEntity
  8
99：枠線
100
AcDbLine
 10
239.557611186142
 20
16.56608402528509
 30
0.0
 11
237.1792036861417
 21
16.56608402528509
 31
0.0
  0
LINE
  5
6F59
330
280B
100
AcDbEntity
  8
99：枠線
100
AcDbLine
 10
244.1390776861418
 20
16.22257502528505
 30
0.0
 11
246.1042036861414
 21
13.41608402528523
 31
0.0
  0
TEXT
  5
6F5A
330
280B
100
AcDbEntity
  8
99：枠線
100
AcDbText
 10
249.8937121794207
 20
34.19967632138783
 30
0.0
 40
2.0
  1
CHECKED BY
 41
0.8132514615907121
 72
     5
 11
261.8566411794201
 21
34.19967632138783
 31
0.0
100
AcDbText
  0
TEXT
  5
6F5B
330
280B
100
AcDbEntity
  8
99：枠線
100
AcDbText
 10
244.5564931794207
 20
34.19967632138783
 30
0.0
 40
2.5
  1
検図
 41
0.7741935483870968
  7
JX_FONT
 72
     5
 11
248.5564931794207
 21
34.19967632138783
 31
0.0
100
AcDbText
  0
LINE
  5
6F5C
330
280B
100
AcDbEntity
  8
99：枠線
100
AcDbLine
 10
302.5529221794205
 20
37.57462332138786
 30
0.0
 11
302.5529221794205
 21
7.574623321387846
 31
0.0
  0
LINE
  5
6F5D
330
280B
100
AcDbEntity
  8
99：枠線
100
AcDbLine
 10
317.5529221794207
 20
7.574623321387846
 30
0.0
 11
317.5529221794207
 21
37.57462332138786
 31
0.0
  0
CIRCLE
  5
6F5E
330
280B
100
AcDbEntity
  8
99：枠線
100
AcDbCircle
 10
306.0529221794205
 20
32.44873132138784
 30
0.0
 40
1.5
  0
CIRCLE
  5
6F5F
330
280B
100
AcDbEntity
  8
99：枠線
100
AcDbCircle
 10
306.0529221794205
 20
32.44873132138784
 30
0.0
 40
2.5
  0
LINE
  5
6F60
330
280B
100
AcDbEntity
  8
99：枠線
100
AcDbLine
 10
310.5529221794205
 20
30.94873132138783
 30
0.0
 11
310.5529221794205
 21
33.94873132138783
 31
0.0
  0
LINE
  5
6F61
330
280B
100
AcDbEntity
  8
99：枠線
100
AcDbLine
 10
316.5529221794205
 20
34.94873132138784
 30
0.0
 11
316.5529221794205
 21
29.94873132138783
 31
0.0
  0
LINE
  5
6F62
330
280B
100
AcDbEntity
  8
99：枠線
100
AcDbLine
 10
316.5529221794205
 20
29.94873132138783
 30
0.0
 11
310.5529221794205
 21
30.94873132138783
 31
0.0
  0
TEXT
  5
6F63
330
280B
100
AcDbEntity
  8
99：枠線
100
AcDbText
 10
308.6292161794209
 20
24.19967632138783
 30
0.0
 40
2.0
  1
SCALE
 41
1.109589041095839
 72
     5
 11
316.7292161794205
 21
24.19967632138783
 31
0.0
100
AcDbText
  0
LINE
  5
6F64
330
280B
100
AcDbEntity
  8
99：枠線
100
AcDbLine
 10
317.5529221794207
 20
27.57462332138786
 30
0.0
 11
302.5529221794205
 21
27.57462332138786
 31
0.0
  0
TEXT
  5
6F65
330
280B
100
AcDbEntity
  8
99：枠線
100
AcDbText
 10
308.6292161794209
 20
14.19967632138783
 30
0.0
 40
2.0
  1
UNITS
 41
1.194829028061643
 72
     5
 11
316.7292161794205
 21
14.19967632138783
 31
0.0
100
AcDbText
  0
LINE
  5
6F66
330
280B
100
AcDbEntity
  8
99：枠線
100
AcDbLine
 10
302.5529221794205
 20
17.57462332138785
 30
0.0
 11
317.5529221794207
 21
17.57462332138785
 31
0.0
  0
TEXT
  5
6F67
330
280B
100
AcDbEntity
  8
99：枠線
100
AcDbText
 10
303.8064931794207
 20
14.19967632138783
 30
0.0
 40
2.5
  1
単位
 41
0.75
  7
JX_FONT
 72
     5
 11
307.8064931794207
 21
14.19967632138783
 31
0.0
100
AcDbText
  0
TEXT
  5
6F68
330
280B
100
AcDbEntity
  8
99：枠線
100
AcDbText
 10
307.0448633044352
 20
8.843123321387976
 30
0.0
 40
3.5
  1
mm
 41
1.073907801268937
 72
     5
 11
313.3829091794206
 21
8.843123321387976
 31
0.0
100
AcDbText
  0
TEXT
  5
6F69
330
280B
100
AcDbEntity
  8
99：枠線
100
AcDbText
 10
303.8064931794207
 20
24.19967632138783
 30
0.0
 40
2.5
  1
尺度
 41
0.75
  7
JX_FONT
 72
     5
 11
307.8064931794207
 21
24.19967632138783
 31
0.0
100
AcDbText
  0
TEXT
  5
6F6A
330
280B
100
AcDbEntity
  8
99：枠線
100
AcDbText
 10
319.5354661794211
 20
19.19967632138783
 30
0.0
 40
2.5
  1
図面番号
 41
0.7058823529411763
  7
JX_FONT
 72
     5
 11
327.5354661794211
 21
19.19967632138783
 31
0.0
100
AcDbText
  0
LINE
  5
6F6B
330
280B
100
AcDbEntity
  8
99：枠線
100
AcDbLine
 10
310.5529221794205
 20
33.94873132138783
 30
0.0
 11
316.5529221794205
 21
34.94873132138784
 31
0.0
  0
LINE
  5
6F6C
330
280B
100
AcDbEntity
  8
99：枠線
100
AcDbLine
 10
316.9624321794211
 20
32.44873132138784
 30
0.0
 11
303.2491101794204
 21
32.44873132138784
 31
0.0
  0
TEXT
  5
6F6D
330
280B
100
AcDbEntity
  8
99：枠線
100
AcDbText
 10
319.5354661794211
 20
33.25460432138785
 30
0.0
 40
2.5
  1
名称
 41
0.75
  7
JX_FONT
 72
     5
 11
323.5354661794211
 21
33.25460432138785
 31
0.0
100
AcDbText
  0
LINE
  5
6F6E
330
280B
100
AcDbEntity
  8
99：枠線
100
AcDbLine
 10
356.5529221794207
 20
22.57462332138786
 30
0.0
 11
356.5529221794207
 21
7.574623321387846
 31
0.0
  0
TEXT
  5
6F6F
330
280B
100
AcDbEntity
  8
99：枠線
100
AcDbText
 10
358.5354661794212
 20
19.19967632138783
 30
0.0
 40
2.5
  1
型 式
 41
0.8780487804878049
  7
JX_FONT
 72
     5
 11
364.5354661794212
 21
19.19967632138783
 31
0.0
100
AcDbText
  0
TEXT
  5
6F70
330
280B
100
AcDbEntity
  8
99：枠線
100
AcDbText
 10
368.1893971794208
 20
19.19967632138783
 30
0.0
 40
2.0
  1
MODEL
 41
1.213333333333275
 72
     5
 11
377.2893971794204
 21
19.19967632138783
 31
0.0
100
AcDbText
  0
LINE
  5
6F71
330
280B
100
AcDbEntity
  8
1：主線
100
AcDbLine
 10
223.5529221331896
 20
7.479238659015051
 30
0.0
 11
223.5529221331896
 21
7.574622909145388
 31
0.0
  0
LINE
  5
6F72
330
280B
100
AcDbEntity
  8
2：副線
100
AcDbLine
 10
224.5529221331896
 20
7.479238659015051
 30
0.0
 11
224.5529221331896
 21
7.574622909145388
 31
0.0
  0
LINE
  5
6F73
330
280B
100
AcDbEntity
  8
3：中心線
100
AcDbLine
 10
225.5529221331896
 20
7.479238659015051
 30
0.0
 11
225.5529221331896
 21
7.574622909145388
 31
0.0
  0
LINE
  5
6F74
330
280B
100
AcDbEntity
  8
4：隠線
100
AcDbLine
 10
226.5529221331896
 20
7.479238659015051
 30
0.0
 11
226.5529221331896
 21
7.574622909145388
 31
0.0
  0
LINE
  5
6F75
330
280B
100
AcDbEntity
  8
5：想像線
100
AcDbLine
 10
227.5529221331896
 20
7.479238659015051
 30
0.0
 11
227.5529221331896
 21
7.574622909145388
 31
0.0
  0
LINE
  5
6F76
330
280B
100
AcDbEntity
  8
6：部品線
100
AcDbLine
 10
228.5529221331896
 20
7.479238659015051
 30
0.0
 11
228.5529221331896
 21
7.574622909145388
 31
0.0
  0
LINE
  5
6F77
330
280B
100
AcDbEntity
  8
7：文字
100
AcDbLine
 10
229.5529221331896
 20
7.479238659015051
 30
0.0
 11
229.5529221331896
 21
7.574622909145388
 31
0.0
  0
LINE
  5
6F78
330
280B
100
AcDbEntity
  8
8：ﾊｯﾁﾝｸﾞ線
100
AcDbLine
 10
230.5529221331896
 20
7.479238659015051
 30
0.0
 11
230.5529221331896
 21
7.574622909145388
 31
0.0
  0
LINE
  5
6F79
330
280B
100
AcDbEntity
  8
9：寸法線
100
AcDbLine
 10
231.5529221331896
 20
7.479238659015051
 30
0.0
 11
231.5529221331896
 21
7.574622909145388
 31
0.0
  0
LINE
  5
6F7A
330
280B
100
AcDbEntity
  8
99：Defpoint
100
AcDbLine
 10
232.5529221331896
 20
7.479238659015051
 30
0.0
 11
232.5529221331896
 21
7.574622909145388
 31
0.0
  0
LINE
  5
6F7B
330
280B
100
AcDbEntity
  8
99：構築線
100
AcDbLine
 10
233.5529221331896
 20
7.479238659015051
 30
0.0
 11
233.5529221331896
 21
7.574622909145388
 31
0.0
  0
LINE
  5
6F7C
330
280B
100
AcDbEntity
  8
99：枠線
100
AcDbLine
 10
234.5529221331896
 20
7.479238659015051
 30
0.0
 11
234.5529221331896
 21
7.574622909145388
 31
0.0
  0
LINE
  5
6F7D
330
280B
100
AcDbEntity
  8
1：主線
100
AcDbLine
 10
235.5529221331896
 20
7.479238659015051
 30
0.0
 11
235.5529221331896
 21
7.574622909145388
 31
0.0
  0
LINE
  5
6F7E
330
280B
100
AcDbEntity
  8
1：主線
100
AcDbLine
 10
236.5529221331896
 20
7.479238659015051
 30
0.0
 11
236.5529221331896
 21
7.574622909145388
 31
0.0
  0
LINE
  5
6F7F
330
280B
100
AcDbEntity
  8
99：枠線
100
AcDbLine
 10
223.5529221794205
 20
22.57462332138786
 30
0.0
 11
223.5529221794205
 21
37.57462332138786
 31
0.0
  0
LINE
  5
6F80
330
280B
100
AcDbEntity
  8
0
100
AcDbLine
 10
223.5529221794205
 20
22.57462332138786
 30
0.0
 11
263.0529221794205
 21
22.57462332138786
 31
0.0
  0
LINE
  5
6F81
330
280B
100
AcDbEntity
  8
0
100
AcDbLine
 10
223.5529221794205
 20
37.57462332138786
 30
0.0
 11
263.0529221794205
 21
37.57462332138786
 31
0.0
  0
LINE
  5
6F82
330
280B
100
AcDbEntity
  8
99：枠線
100
AcDbLine
 10
302.5529221794205
 20
33.57462332138786
 30
0.0
 11
263.0529221794205
 21
33.57462332138786
 31
0.0
  0
LINE
  5
6F83
330
280B
100
AcDbEntity
  8
99：枠線
100
AcDbLine
 10
302.5529221794205
 20
37.57462332138786
 30
0.0
 11
302.5529221794205
 21
22.57462332138786
 31
0.0
  0
LINE
  5
6F84
330
280B
100
AcDbEntity
  8
99：枠線
100
AcDbLine
 10
282.8029221794206
 20
22.57462332138786
 30
0.0
 11
282.8029221794206
 21
37.57462332138786
 31
0.0
  0
LINE
  5
6F85
330
280B
100
AcDbEntity
  8
99：枠線
100
AcDbLine
 10
263.0529221794205
 20
22.57462332138786
 30
0.0
 11
263.0529221794205
 21
37.57462332138786
 31
0.0
  0
LINE
  5
6F86
330
280B
100
AcDbEntity
  8
0
100
AcDbLine
 10
184.0529221794205
 20
7.574623321387846
 30
0.0
 11
223.5529221794205
 21
7.574623321387831
 31
0.0
  0
LINE
  5
6F87
330
280B
100
AcDbEntity
  8
0
100
AcDbLine
 10
223.5529221794205
 20
22.57462332138786
 30
0.0
 11
263.0529221794205
 21
22.57462332138786
 31
0.0
  0
TEXT
  5
6F88
330
280B
100
AcDbEntity
  8
99：枠線
100
AcDbText
 10
264.3064931794207
 20
34.19967632138783
 30
0.0
 40
2.5
  1
設計
 41
0.75
  7
JX_FONT
 72
     5
 11
268.3064931794207
 21
34.19967632138783
 31
0.0
100
AcDbText
  0
TEXT
  5
6F89
330
280B
100
AcDbEntity
  8
99：枠線
100
AcDbText
 10
290.0040941794206
 20
34.19967632138783
 30
0.0
 40
2.0
  1
DRAWN BY
 41
0.9007633587786395
 72
     5
 11
301.8040941794208
 21
34.19967632138783
 31
0.0
100
AcDbText
  0
TEXT
  5
6F8A
330
280B
100
AcDbEntity
  8
99：枠線
100
AcDbText
 10
269.1406179317272
 20
34.19967632138783
 30
0.0
 40
2.0
  1
DESIGNED BY
 41
0.838166942675156
 72
     5
 11
282.2998389317271
 21
34.19967632138783
 31
0.0
100
AcDbText
  0
TEXT
  5
6F8B
330
280B
100
AcDbEntity
  8
99：枠線
100
AcDbText
 10
284.0564931794207
 20
34.19967632138783
 30
0.0
 40
2.5
  1
製図
 41
0.7741935483870968
  7
JX_FONT
 72
     5
 11
288.0564931794207
 21
34.19967632138783
 31
0.0
100
AcDbText
  0
ENDBLK
  5
280D
330
280B
100
AcDbEntity
  8
0
100
AcDbBlockEnd
  0
BLOCK
  5
45D3
330
45D2
100
AcDbEntity
  8
0
100
AcDbBlockBegin
  2
*D2
 70
     1
 10
0.0
 20
0.0
 30
0.0
  3
*D2
  1

  0
LINE
  5
6A31
330
45D2
100
AcDbEntity
  8
9：寸法線
 62
     1
440
 16777216
370
    -2
100
AcDbLine
 10
676.0814564962892
 20
851.0047141738223
 30
0.0
 11
529.8455938744901
 21
851.0047141738223
 31
0.0
  0
LINE
  5
6A32
330
45D2
100
AcDbEntity
  8
9：寸法線
 62
     1
440
 16777216
370
    -2
100
AcDbLine
 10
907.8126200888837
 20
951.0047141741807
 30
0.0
 11
529.8455938744901
 21
951.0047141741807
 31
0.0
  0
LINE
  5
6A33
330
45D2
100
AcDbEntity
  8
9：寸法線
 62
     1
440
 16777216
370
    -2
100
AcDbLine
 10
537.8455938744898
 20
871.004714173822
 30
0.0
 11
537.8455938744898
 21
931.0047141741812
 31
0.0
  0
INSERT
  5
6A34
330
45D2
100
AcDbEntity
  8
9：寸法線
 62
     1
440
 16777216
370
    -2
100
AcDbBlockReference
  2
_OPEN
 10
537.8455938744898
 20
851.0047141738223
 30
0.0
 41
20.0
 42
20.0
 43
20.0
 50
270.0
  0
INSERT
  5
6A35
330
45D2
100
AcDbEntity
  8
9：寸法線
 62
     1
440
 16777216
370
    -2
100
AcDbBlockReference
  2
_OPEN
 10
537.8455938744898
 20
951.0047141741807
 30
0.0
 41
20.0
 42
20.0
 43
20.0
 50
90.0
  0
MTEXT
  5
6A36
330
45D2
100
AcDbEntity
  8
9：寸法線
 62
     2
440
 16777216
100
AcDbMText
 10
517.8455938744896
 20
901.0047141740015
 30
0.0
 40
24.0
 41
0.0
 46
0.0
 71
     5
 72
     1
  1
\A1;100
 11
0.0000000000000001
 21
1.0
 31
0.0
 73
     1
 44
1.0
  0
POINT
  5
6A37
330
45D2
100
AcDbEntity
  8
DEFPOINTS
 62
     0
440
 16777216
100
AcDbPoint
 10
686.0814564962891
 20
851.0047141738223
 30
0.0
  0
POINT
  5
6A38
330
45D2
100
AcDbEntity
  8
DEFPOINTS
 62
     0
440
 16777216
100
AcDbPoint
 10
917.8126200888836
 20
951.0047141741807
 30
-0.0000000000034106
  0
POINT
  5
6A39
330
45D2
100
AcDbEntity
  8
DEFPOINTS
 62
     0
440
 16777216
100
AcDbPoint
 10
537.8455938744898
 20
951.0047141741807
 30
0.0
  0
ENDBLK
  5
45D4
330
45D2
100
AcDbEntity
  8
0
100
AcDbBlockEnd
  0
BLOCK
  5
45E0
330
45DF
100
AcDbEntity
  8
0
100
AcDbBlockBegin
  2
*D3
 70
     1
 10
0.0
 20
0.0
 30
0.0
  3
*D3
  1

  0
LINE
  5
69C2
330
45DF
100
AcDbEntity
  8
9：寸法線
 62
     1
440
 16777216
370
    -2
100
AcDbLine
 10
676.0814564962892
 20
851.0047141738223
 30
0.0
 11
473.8455938744897
 21
851.0047141738223
 31
0.0
  0
LINE
  5
69C3
330
45DF
100
AcDbEntity
  8
9：寸法線
 62
     1
440
 16777216
370
    -2
100
AcDbLine
 10
944.9216334306347
 20
1851.204714173803
 30
0.0
 11
473.84559387449
 21
1851.204714173803
 31
0.0
  0
LINE
  5
69C4
330
45DF
100
AcDbEntity
  8
9：寸法線
 62
     1
440
 16777216
370
    -2
100
AcDbLine
 10
481.8455938744897
 20
871.004714173822
 30
0.0
 11
481.84559387449
 21
1831.204714173803
 31
0.0
  0
INSERT
  5
69C5
330
45DF
100
AcDbEntity
  8
9：寸法線
 62
     1
440
 16777216
370
    -2
100
AcDbBlockReference
  2
_OPEN
 10
481.8455938744897
 20
851.0047141738223
 30
0.0
 41
20.0
 42
20.0
 43
20.0
 50
270.0
  0
INSERT
  5
69C6
330
45DF
100
AcDbEntity
  8
9：寸法線
 62
     1
440
 16777216
370
    -2
100
AcDbBlockReference
  2
_OPEN
 10
481.84559387449
 20
1851.204714173803
 30
0.0
 41
20.0
 42
20.0
 43
20.0
 50
90.0
  0
MTEXT
  5
69C7
330
45DF
100
AcDbEntity
  8
9：寸法線
 62
     2
440
 16777216
100
AcDbMText
 10
461.8455938744896
 20
1351.104714173813
 30
0.0
 40
24.0
 41
0.0
 46
0.0
 71
     5
 72
     1
  1
\A1;1000
 11
0.0000000000000001
 21
1.0
 31
0.0
 73
     1
 44
1.0
  0
POINT
  5
69C8
330
45DF
100
AcDbEntity
  8
DEFPOINTS
 62
     0
440
 16777216
100
AcDbPoint
 10
686.0814564962891
 20
851.0047141738223
 30
0.0
  0
POINT
  5
69C9
330
45DF
100
AcDbEntity
  8
DEFPOINTS
 62
     0
440
 16777216
100
AcDbPoint
 10
954.9216334306347
 20
1851.204714173803
 30
0.0
  0
POINT
  5
69CA
330
45DF
100
AcDbEntity
  8
DEFPOINTS
 62
     0
440
 16777216
100
AcDbPoint
 10
481.84559387449
 20
1851.204714173803
 30
0.0
  0
ENDBLK
  5
45E1
330
45DF
100
AcDbEntity
  8
0
100
AcDbBlockEnd
  0
BLOCK
  5
45F6
330
45F5
100
AcDbEntity
  8
0
100
AcDbBlockBegin
  2
*D4
 70
     1
 10
0.0
 20
0.0
 30
0.0
  3
*D4
  1

  0
LINE
  5
69CB
330
45F5
100
AcDbEntity
  8
9：寸法線
 62
     1
440
 16777216
370
    -2
100
AcDbLine
 10
676.0814564962892
 20
851.0047141738223
 30
0.0
 11
529.8455938744901
 21
851.0047141738223
 31
0.0
  0
LINE
  5
69CC
330
45F5
100
AcDbEntity
  8
9：寸法線
 62
     1
440
 16777216
370
    -2
100
AcDbLine
 10
907.7255918064611
 20
751.0047141738222
 30
0.0
 11
529.8455938744898
 21
751.0047141738222
 31
0.0
  0
LINE
  5
69CD
330
45F5
100
AcDbEntity
  8
9：寸法線
 62
     1
440
 16777216
370
    -2
100
AcDbLine
 10
537.8455938744898
 20
831.004714173822
 30
0.0
 11
537.8455938744898
 21
771.0047141738222
 31
0.0
  0
INSERT
  5
69CE
330
45F5
100
AcDbEntity
  8
9：寸法線
 62
     1
440
 16777216
370
    -2
100
AcDbBlockReference
  2
_OPEN
 10
537.8455938744898
 20
851.0047141738223
 30
0.0
 41
20.0
 42
20.0
 43
20.0
 50
90.0
  0
INSERT
  5
69CF
330
45F5
100
AcDbEntity
  8
9：寸法線
 62
     1
440
 16777216
370
    -2
100
AcDbBlockReference
  2
_OPEN
 10
537.8455938744898
 20
751.0047141738222
 30
0.0
 41
20.0
 42
20.0
 43
20.0
 50
270.0
  0
MTEXT
  5
69D0
330
45F5
100
AcDbEntity
  8
9：寸法線
 62
     2
440
 16777216
100
AcDbMText
 10
517.8455938744896
 20
801.0047141738223
 30
0.0
 40
24.0
 41
0.0
 46
0.0
 71
     5
 72
     1
  1
\A1;100
 11
0.0000000000000001
 21
1.0
 31
0.0
 73
     1
 44
1.0
  0
POINT
  5
69D1
330
45F5
100
AcDbEntity
  8
DEFPOINTS
 62
     0
440
 16777216
100
AcDbPoint
 10
686.0814564962891
 20
851.0047141738223
 30
0.0
  0
POINT
  5
69D2
330
45F5
100
AcDbEntity
  8
DEFPOINTS
 62
     0
440
 16777216
100
AcDbPoint
 10
917.7255918064611
 20
751.0047141738222
 30
-0.0000000000034106
  0
POINT
  5
69D3
330
45F5
100
AcDbEntity
  8
DEFPOINTS
 62
     0
440
 16777216
100
AcDbPoint
 10
537.8455938744898
 20
751.0047141738222
 30
0.0
  0
ENDBLK
  5
45F7
330
45F5
100
AcDbEntity
  8
0
100
AcDbBlockEnd
  0
BLOCK
  5
4603
330
4602
100
AcDbEntity
  8
0
100
AcDbBlockBegin
  2
*D5
 70
     1
 10
0.0
 20
0.0
 30
0.0
  3
*D5
  1

  0
LINE
  5
69D4
330
4602
100
AcDbEntity
  8
9：寸法線
 62
     1
440
 16777216
370
    -2
100
AcDbLine
 10
676.0814564962892
 20
851.0047141738223
 30
0.0
 11
473.8455938744898
 21
851.0047141738223
 31
0.0
  0
LINE
  5
69D5
330
4602
100
AcDbEntity
  8
9：寸法線
 62
     1
440
 16777216
370
    -2
100
AcDbLine
 10
912.6813303005114
 20
551.0047141738222
 30
0.0
 11
473.8455938744898
 21
551.0047141738223
 31
0.0
  0
LINE
  5
69D6
330
4602
100
AcDbEntity
  8
9：寸法線
 62
     1
440
 16777216
370
    -2
100
AcDbLine
 10
481.8455938744898
 20
831.004714173822
 30
0.0
 11
481.8455938744898
 21
571.0047141738222
 31
0.0
  0
INSERT
  5
69D7
330
4602
100
AcDbEntity
  8
9：寸法線
 62
     1
440
 16777216
370
    -2
100
AcDbBlockReference
  2
_OPEN
 10
481.8455938744898
 20
851.0047141738223
 30
0.0
 41
20.0
 42
20.0
 43
20.0
 50
90.0
  0
INSERT
  5
69D8
330
4602
100
AcDbEntity
  8
9：寸法線
 62
     1
440
 16777216
370
    -2
100
AcDbBlockReference
  2
_OPEN
 10
481.8455938744898
 20
551.0047141738223
 30
0.0
 41
20.0
 42
20.0
 43
20.0
 50
270.0
  0
MTEXT
  5
69D9
330
4602
100
AcDbEntity
  8
9：寸法線
 62
     2
440
 16777216
100
AcDbMText
 10
461.8455938744896
 20
701.0047141738222
 30
0.0
 40
24.0
 41
0.0
 46
0.0
 71
     5
 72
     1
  1
\A1;300
 11
0.0000000000000001
 21
1.0
 31
0.0
 73
     1
 44
1.0
  0
POINT
  5
69DA
330
4602
100
AcDbEntity
  8
DEFPOINTS
 62
     0
440
 16777216
100
AcDbPoint
 10
686.0814564962891
 20
851.0047141738223
 30
0.0
  0
POINT
  5
69DB
330
4602
100
AcDbEntity
  8
DEFPOINTS
 62
     0
440
 16777216
100
AcDbPoint
 10
922.681330300511
 20
551.0047141738222
 30
0.0
  0
POINT
  5
69DC
330
4602
100
AcDbEntity
  8
DEFPOINTS
 62
     0
440
 16777216
100
AcDbPoint
 10
481.8455938744898
 20
551.0047141738223
 30
0.0
  0
ENDBLK
  5
4604
330
4602
100
AcDbEntity
  8
0
100
AcDbBlockEnd
  0
BLOCK
  5
46D2
330
46D1
100
AcDbEntity
  8
0
100
AcDbBlockBegin
  2
*D6
 70
     1
 10
0.0
 20
0.0
 30
0.0
  3
*D6
  1

  0
LINE
  5
6C2B
330
46D1
100
AcDbEntity
  8
9：寸法線
 62
     1
440
 16777216
370
    -2
100
AcDbLine
 10
922.681330300511
 20
1356.219860687014
 30
0.0
 11
922.681330300511
 21
1354.219860687014
 31
0.0
  0
LINE
  5
6C2C
330
46D1
100
AcDbEntity
  8
9：寸法線
 62
     1
440
 16777216
370
    -2
100
AcDbLine
 10
1062.681330300511
 20
1356.219860687014
 30
0.0
 11
1062.681330300511
 21
1354.219860687014
 31
0.0
  0
LINE
  5
6C2D
330
46D1
100
AcDbEntity
  8
9：寸法線
 62
     1
440
 16777216
370
    -2
100
AcDbLine
 10
1042.681330300511
 20
1346.219860687014
 30
0.0
 11
942.681330300511
 21
1346.219860687014
 31
0.0
  0
LINE
  5
6C2E
330
46D1
100
AcDbEntity
  8
9：寸法線
 62
     1
440
 16777216
370
    -2
100
AcDbLine
 10
922.681330300511
 20
1346.219860687014
 30
0.0
 11
818.2624326627157
 21
1346.219860687014
 31
0.0
  0
INSERT
  5
6C2F
330
46D1
100
AcDbEntity
  8
9：寸法線
 62
     1
440
 16777216
370
    -2
100
AcDbBlockReference
  2
_OPEN
 10
1062.681330300511
 20
1346.219860687014
 30
0.0
 41
20.0
 42
20.0
 43
20.0
  0
INSERT
  5
6C30
330
46D1
100
AcDbEntity
  8
9：寸法線
 62
     1
440
 16777216
370
    -2
100
AcDbBlockReference
  2
_OPEN
 10
922.681330300511
 20
1346.219860687014
 30
0.0
 41
20.0
 42
20.0
 43
20.0
 50
180.0
  0
MTEXT
  5
6C31
330
46D1
100
AcDbEntity
  8
9：寸法線
 62
     2
440
 16777216
100
AcDbMText
 10
860.4718814816132
 20
1366.219860687014
 30
0.0
 40
24.0
 41
0.0
 46
0.0
 71
     5
 72
     1
  1
\A1;φ140
 73
     1
 44
1.0
  0
POINT
  5
6C32
330
46D1
100
AcDbEntity
  8
DEFPOINTS
 62
     0
440
 16777216
100
AcDbPoint
 10
922.681330300511
 20
1346.219860687014
 30
0.0
  0
POINT
  5
6C33
330
46D1
100
AcDbEntity
  8
DEFPOINTS
 62
     0
440
 16777216
100
AcDbPoint
 10
1062.681330300511
 20
1346.219860687014
 30
0.0
  0
POINT
  5
6C34
330
46D1
100
AcDbEntity
  8
DEFPOINTS
 62
     0
440
 16777216
100
AcDbPoint
 10
1062.681330300511
 20
1346.219860687014
 30
0.0
  0
ENDBLK
  5
46D3
330
46D1
100
AcDbEntity
  8
0
100
AcDbBlockEnd
  0
BLOCK
  5
68FC
330
68FB
100
AcDbEntity
  8
0
100
AcDbBlockBegin
  2
*D9
 70
     1
 10
0.0
 20
0.0
 30
0.0
  3
*D9
  1

  0
LINE
  5
69F0
330
68FB
100
AcDbEntity
  8
9：寸法線
 62
     1
440
 16777216
370
    -2
100
AcDbLine
 10
912.6813303005114
 20
551.0047141738222
 30
0.0
 11
529.8455938744901
 21
551.0047141738223
 31
0.0
  0
LINE
  5
69F1
330
68FB
100
AcDbEntity
  8
9：寸法線
 62
     1
440
 16777216
370
    -2
100
AcDbLine
 10
597.681330300511
 20
576.0047141738221
 30
0.0
 11
529.8455938744901
 21
576.0047141738221
 31
0.0
  0
LINE
  5
69F2
330
68FB
100
AcDbEntity
  8
9：寸法線
 62
     1
440
 16777216
370
    -2
100
AcDbLine
 10
537.8455938744898
 20
576.0047141738221
 30
0.0
 11
537.8455938744898
 21
616.0047141738219
 31
0.0
  0
LINE
  5
69F3
330
68FB
100
AcDbEntity
  8
9：寸法線
 62
     1
440
 16777216
370
    -2
100
AcDbLine
 10
537.8455938744898
 20
531.0047141738222
 30
0.0
 11
537.8455938744898
 21
467.0011528052292
 31
0.0
  0
LINE
  5
69F4
330
68FB
100
AcDbEntity
  8
9：寸法線
 62
     1
440
 16777216
370
    -2
100
AcDbLine
 10
537.8455938744898
 20
576.0047141738221
 30
0.0
 11
537.8455938744898
 21
551.0047141738223
 31
0.0
  0
INSERT
  5
69F5
330
68FB
100
AcDbEntity
  8
9：寸法線
 62
     1
440
 16777216
370
    -2
100
AcDbBlockReference
  2
_DotSmall
 10
537.8455938744898
 20
576.0047141738221
 30
0.0
 41
20.0
 42
20.0
 43
20.0
 50
270.0
  0
INSERT
  5
69F6
330
68FB
100
AcDbEntity
  8
9：寸法線
 62
     1
440
 16777216
370
    -2
100
AcDbBlockReference
  2
_OPEN
 10
537.8455938744898
 20
551.0047141738223
 30
0.0
 41
20.0
 42
20.0
 43
20.0
 50
90.0
  0
MTEXT
  5
69F7
330
68FB
100
AcDbEntity
  8
9：寸法線
 62
     2
440
 16777216
100
AcDbMText
 10
517.8432316697653
 20
489.0029334895258
 30
0.0
 40
24.0
 41
0.0
 46
0.0
 71
     5
 72
     1
  1
\A1;25
 11
0.0000000000000001
 21
1.0
 31
0.0
 73
     1
 44
1.0
  0
POINT
  5
69F8
330
68FB
100
AcDbEntity
  8
DEFPOINTS
 62
     0
440
 16777216
100
AcDbPoint
 10
922.681330300511
 20
551.0047141738222
 30
0.0
  0
POINT
  5
69F9
330
68FB
100
AcDbEntity
  8
DEFPOINTS
 62
     0
440
 16777216
100
AcDbPoint
 10
607.681330300511
 20
576.0047141738221
 30
0.0
  0
POINT
  5
69FA
330
68FB
100
AcDbEntity
  8
DEFPOINTS
 62
     0
440
 16777216
100
AcDbPoint
 10
537.8455938744898
 20
576.0047141738221
 30
0.0
  0
ENDBLK
  5
68FD
330
68FB
100
AcDbEntity
  8
0
100
AcDbBlockEnd
  0
BLOCK
  5
690B
330
690A
100
AcDbEntity
  8
0
100
AcDbBlockBegin
  2
*D10
 70
     1
 10
0.0
 20
0.0
 30
0.0
  3
*D10
  1

  0
LINE
  5
69FB
330
690A
100
AcDbEntity
  8
9：寸法線
 62
     1
440
 16777216
370
    -2
100
AcDbLine
 10
597.681330300511
 20
576.0047141738221
 30
0.0
 11
529.8455938744898
 21
576.0047141738221
 31
0.0
  0
LINE
  5
69FC
330
690A
100
AcDbEntity
  8
9：寸法線
 62
     1
440
 16777216
370
    -2
100
AcDbLine
 10
962.6813303005114
 20
601.0047141600787
 30
0.0
 11
529.8455938744898
 21
601.0047141600788
 31
0.0
  0
LINE
  5
69FD
330
690A
100
AcDbEntity
  8
9：寸法線
 62
     1
440
 16777216
370
    -2
100
AcDbLine
 10
537.8455938744898
 20
576.0047141738221
 30
0.0
 11
537.8455938744898
 21
556.0047141738221
 31
0.0
  0
LINE
  5
69FE
330
690A
100
AcDbEntity
  8
9：寸法線
 62
     1
440
 16777216
370
    -2
100
AcDbLine
 10
537.8455938744898
 20
621.0047141600788
 30
0.0
 11
537.8455938744898
 21
685.008275528672
 31
0.0
  0
LINE
  5
69FF
330
690A
100
AcDbEntity
  8
9：寸法線
 62
     1
440
 16777216
370
    -2
100
AcDbLine
 10
537.8455938744898
 20
576.0047141738221
 30
0.0
 11
537.8455938744898
 21
601.0047141600788
 31
0.0
  0
INSERT
  5
6A00
330
690A
100
AcDbEntity
  8
9：寸法線
 62
     1
440
 16777216
370
    -2
100
AcDbBlockReference
  2
_DotSmall
 10
537.8455938744898
 20
576.0047141738221
 30
0.0
 41
20.0
 42
20.0
 43
20.0
 50
90.0
  0
INSERT
  5
6A01
330
690A
100
AcDbEntity
  8
9：寸法線
 62
     1
440
 16777216
370
    -2
100
AcDbBlockReference
  2
_OPEN
 10
537.8455938744898
 20
601.0047141600788
 30
0.0
 41
20.0
 42
20.0
 43
20.0
 50
270.0
  0
MTEXT
  5
6A02
330
690A
100
AcDbEntity
  8
9：寸法線
 62
     2
440
 16777216
100
AcDbMText
 10
517.8432316697653
 20
663.0064948443756
 30
0.0
 40
24.0
 41
0.0
 46
0.0
 71
     5
 72
     1
  1
\A1;25
 11
0.0000000000000001
 21
1.0
 31
0.0
 73
     1
 44
1.0
  0
POINT
  5
6A03
330
690A
100
AcDbEntity
  8
DEFPOINTS
 62
     0
440
 16777216
100
AcDbPoint
 10
607.681330300511
 20
576.0047141738221
 30
0.0
  0
POINT
  5
6A04
330
690A
100
AcDbEntity
  8
DEFPOINTS
 62
     0
440
 16777216
100
AcDbPoint
 10
972.681330300511
 20
601.0047141600787
 30
0.0
  0
POINT
  5
6A05
330
690A
100
AcDbEntity
  8
DEFPOINTS
 62
     0
440
 16777216
100
AcDbPoint
 10
537.8455938744898
 20
601.0047141600788
 30
0.0
  0
ENDBLK
  5
690C
330
690A
100
AcDbEntity
  8
0
100
AcDbBlockEnd
  0
BLOCK
  5
6933
330
6931
100
AcDbEntity
  8
0
100
AcDbBlockBegin
  2
_DotSmall
 70
     0
 10
0.0
 20
0.0
 30
0.0
  3
_DotSmall
  1

  0
LWPOLYLINE
  5
6932
330
6931
100
AcDbEntity
  8
0
  6
ByBlock
 62
     0
100
AcDbPolyline
 90
        2
 70
     1
 43
0.5
 10
-0.0625
 20
0.0
 42
1.0
 10
0.0625
 20
0.0
 42
1.0
  0
ENDBLK
  5
6934
330
6931
100
AcDbEntity
  8
0
100
AcDbBlockEnd
  0
BLOCK
  5
694D
330
694C
100
AcDbEntity
  8
0
100
AcDbBlockBegin
  2
*D12
 70
     1
 10
0.0
 20
0.0
 30
0.0
  3
*D12
  1

  0
LINE
  5
6A06
330
694C
100
AcDbEntity
  8
9：寸法線
 62
     1
440
 16777216
370
    -2
100
AcDbLine
 10
617.681330300511
 20
556.4547141738221
 30
0.0
 11
617.681330300511
 21
459.7938945029627
 31
0.0
  0
LINE
  5
6A07
330
694C
100
AcDbEntity
  8
9：寸法線
 62
     1
440
 16777216
370
    -2
100
AcDbLine
 10
922.681330300511
 20
541.0047141738222
 30
0.0
 11
922.681330300511
 21
459.7938945029627
 31
0.0
  0
LINE
  5
6A08
330
694C
100
AcDbEntity
  8
9：寸法線
 62
     1
440
 16777216
370
    -2
100
AcDbLine
 10
637.681330300511
 20
467.7938945029628
 30
0.0
 11
902.6813303005113
 21
467.7938945029628
 31
0.0
  0
INSERT
  5
6A09
330
694C
100
AcDbEntity
  8
9：寸法線
 62
     1
440
 16777216
370
    -2
100
AcDbBlockReference
  2
_OPEN
 10
617.681330300511
 20
467.7938945029628
 30
0.0
 41
20.0
 42
20.0
 43
20.0
 50
180.0
  0
INSERT
  5
6A0A
330
694C
100
AcDbEntity
  8
9：寸法線
 62
     1
440
 16777216
370
    -2
100
AcDbBlockReference
  2
_OPEN
 10
922.681330300511
 20
467.7938945029628
 30
0.0
 41
20.0
 42
20.0
 43
20.0
  0
MTEXT
  5
6A0B
330
694C
100
AcDbEntity
  8
9：寸法線
 62
     2
440
 16777216
100
AcDbMText
 10
770.181330300511
 20
488.9938945029627
 30
0.0
 40
24.0
 41
0.0
 46
0.0
 71
     5
 72
     1
  1
\A1;(305)
 73
     1
 44
1.0
  0
POINT
  5
6A0C
330
694C
100
AcDbEntity
  8
DEFPOINTS
 62
     0
440
 16777216
100
AcDbPoint
 10
617.681330300511
 20
566.4547141738221
 30
0.0
  0
POINT
  5
6A0D
330
694C
100
AcDbEntity
  8
DEFPOINTS
 62
     0
440
 16777216
100
AcDbPoint
 10
922.681330300511
 20
551.0047141738222
 30
0.0
  0
POINT
  5
6A0E
330
694C
100
AcDbEntity
  8
DEFPOINTS
 62
     0
440
 16777216
100
AcDbPoint
 10
922.681330300511
 20
467.7938945029628
 30
0.0
  0
ENDBLK
  5
694E
330
694C
100
AcDbEntity
  8
0
100
AcDbBlockEnd
  0
BLOCK
  5
6973
330
6972
100
AcDbEntity
  8
0
100
AcDbBlockBegin
  2
*D13
 70
     1
 10
0.0
 20
0.0
 30
0.0
  3
*D13
  1

  0
LINE
  5
6A0F
330
6972
100
AcDbEntity
  8
9：寸法線
 62
     1
440
 16777216
370
    -2
100
AcDbLine
 10
1062.681330300511
 20
541.0047141738222
 30
0.0
 11
1062.681330300511
 21
459.7938945029627
 31
0.0
  0
LINE
  5
6A10
330
6972
100
AcDbEntity
  8
9：寸法線
 62
     1
440
 16777216
370
    -2
100
AcDbLine
 10
1367.681330300511
 20
556.4547141738221
 30
0.0
 11
1367.681330300511
 21
459.7938945029627
 31
0.0
  0
LINE
  5
6A11
330
6972
100
AcDbEntity
  8
9：寸法線
 62
     1
440
 16777216
370
    -2
100
AcDbLine
 10
1082.681330300511
 20
467.7938945029628
 30
0.0
 11
1347.681330300511
 21
467.7938945029628
 31
0.0
  0
INSERT
  5
6A12
330
6972
100
AcDbEntity
  8
9：寸法線
 62
     1
440
 16777216
370
    -2
100
AcDbBlockReference
  2
_OPEN
 10
1062.681330300511
 20
467.7938945029628
 30
0.0
 41
20.0
 42
20.0
 43
20.0
 50
180.0
  0
INSERT
  5
6A13
330
6972
100
AcDbEntity
  8
9：寸法線
 62
     1
440
 16777216
370
    -2
100
AcDbBlockReference
  2
_OPEN
 10
1367.681330300511
 20
467.7938945029628
 30
0.0
 41
20.0
 42
20.0
 43
20.0
  0
MTEXT
  5
6A14
330
6972
100
AcDbEntity
  8
9：寸法線
 62
     2
440
 16777216
100
AcDbMText
 10
1215.181330300511
 20
488.9938945029627
 30
0.0
 40
24.0
 41
0.0
 46
0.0
 71
     5
 72
     1
  1
\A1;(305)
 73
     1
 44
1.0
  0
POINT
  5
6A15
330
6972
100
AcDbEntity
  8
DEFPOINTS
 62
     0
440
 16777216
100
AcDbPoint
 10
1062.681330300511
 20
551.0047141738222
 30
-0.0000000000034106
  0
POINT
  5
6A16
330
6972
100
AcDbEntity
  8
DEFPOINTS
 62
     0
440
 16777216
100
AcDbPoint
 10
1367.681330300511
 20
566.4547141738221
 30
0.0
  0
POINT
  5
6A17
330
6972
100
AcDbEntity
  8
DEFPOINTS
 62
     0
440
 16777216
100
AcDbPoint
 10
1367.681330300511
 20
467.7938945029628
 30
0.0
  0
ENDBLK
  5
6974
330
6972
100
AcDbEntity
  8
0
100
AcDbBlockEnd
  0
BLOCK
  5
6980
330
697F
100
AcDbEntity
  8
0
100
AcDbBlockBegin
  2
*D14
 70
     1
 10
0.0
 20
0.0
 30
0.0
  3
*D14
  1

  0
LINE
  5
6A18
330
697F
100
AcDbEntity
  8
9：寸法線
 62
     1
440
 16777216
370
    -2
100
AcDbLine
 10
617.681330300511
 20
556.4547141738221
 30
0.0
 11
617.681330300511
 21
403.7938945029627
 31
0.0
  0
LINE
  5
6A19
330
697F
100
AcDbEntity
  8
9：寸法線
 62
     1
440
 16777216
370
    -2
100
AcDbLine
 10
1367.681330300511
 20
556.4547141738221
 30
0.0
 11
1367.681330300511
 21
403.7938945029627
 31
0.0
  0
LINE
  5
6A1A
330
697F
100
AcDbEntity
  8
9：寸法線
 62
     1
440
 16777216
370
    -2
100
AcDbLine
 10
637.681330300511
 20
411.7938945029626
 30
0.0
 11
1347.681330300511
 21
411.7938945029626
 31
0.0
  0
INSERT
  5
6A1B
330
697F
100
AcDbEntity
  8
9：寸法線
 62
     1
440
 16777216
370
    -2
100
AcDbBlockReference
  2
_OPEN
 10
617.681330300511
 20
411.7938945029626
 30
0.0
 41
20.0
 42
20.0
 43
20.0
 50
180.0
  0
INSERT
  5
6A1C
330
697F
100
AcDbEntity
  8
9：寸法線
 62
     1
440
 16777216
370
    -2
100
AcDbBlockReference
  2
_OPEN
 10
1367.681330300511
 20
411.7938945029626
 30
0.0
 41
20.0
 42
20.0
 43
20.0
  0
MTEXT
  5
6A1D
330
697F
100
AcDbEntity
  8
9：寸法線
 62
     2
440
 16777216
100
AcDbMText
 10
992.681330300511
 20
431.7938945029626
 30
0.0
 40
24.0
 41
0.0
 46
0.0
 71
     5
 72
     1
  1
\A1;750
 73
     1
 44
1.0
  0
POINT
  5
6A1E
330
697F
100
AcDbEntity
  8
DEFPOINTS
 62
     0
440
 16777216
100
AcDbPoint
 10
617.681330300511
 20
566.4547141738221
 30
0.0
  0
POINT
  5
6A1F
330
697F
100
AcDbEntity
  8
DEFPOINTS
 62
     0
440
 16777216
100
AcDbPoint
 10
1367.681330300511
 20
566.4547141738221
 30
0.0
  0
POINT
  5
6A20
330
697F
100
AcDbEntity
  8
DEFPOINTS
 62
     0
440
 16777216
100
AcDbPoint
 10
1367.681330300511
 20
411.7938945029626
 30
0.0
  0
ENDBLK
  5
6981
330
697F
100
AcDbEntity
  8
0
100
AcDbBlockEnd
  0
BLOCK
  5
7031
330
7030
100
AcDbEntity
  8
0
100
AcDbBlockBegin
  2
*D15
 70
     1
 10
0.0
 20
0.0
 30
0.0
  3
*D15
  1

  0
LINE
  5
7032
330
7030
100
AcDbEntity
  8
OBJECT1
 62
     1
440
 16777216
370
    -2
100
AcDbLine
 10
1060.439327812885
 20
1215.409448179647
 30
0.0
 11
816.3686099863754
 21
1215.409448179647
 31
0.0
  0
LINE
  5
7033
330
7030
100
AcDbEntity
  8
OBJECT1
 62
     1
440
 16777216
370
    -2
100
AcDbLine
 10
1230.338095463799
 20
3816.409448179648
 30
0.0
 11
816.3686099863761
 21
3816.409448179648
 31
0.0
  0
LINE
  5
7034
330
7030
100
AcDbEntity
  8
OBJECT1
 62
     1
440
 16777216
370
    -2
100
AcDbLine
 10
835.1186099863754
 20
1252.909448179647
 30
0.0
 11
835.1186099863761
 21
3778.909448179648
 31
0.0
  0
INSERT
  5
7035
330
7030
100
AcDbEntity
  8
OBJECT1
 62
     1
440
 16777216
370
    -2
100
AcDbBlockReference
  2
_OPEN
 10
835.1186099863754
 20
1215.409448179647
 30
0.0
 41
37.5
 42
37.5
 43
37.5
 50
270.0
  0
INSERT
  5
7036
330
7030
100
AcDbEntity
  8
OBJECT1
 62
     1
440
 16777216
370
    -2
100
AcDbBlockReference
  2
_OPEN
 10
835.1186099863761
 20
3816.409448179648
 30
0.0
 41
37.5
 42
37.5
 43
37.5
 50
90.0
  0
MTEXT
  5
7037
330
7030
100
AcDbEntity
  8
OBJECT1
 62
     2
440
 16777216
100
AcDbMText
 10
797.6141808525173
 20
2515.909448179647
 30
0.0
 40
45.0
 41
0.0
 46
0.0
 71
     5
 72
     1
  1
\A1;2600
 11
0.0000000000000001
 21
1.0
 31
0.0
 73
     1
 44
1.0
  0
POINT
  5
7038
330
7030
100
AcDbEntity
  8
DEFPOINTS
 62
     0
440
 16777216
100
AcDbPoint
 10
1079.189327812885
 20
1215.409448179647
 30
0.0
  0
POINT
  5
7039
330
7030
100
AcDbEntity
  8
DEFPOINTS
 62
     0
440
 16777216
100
AcDbPoint
 10
1249.088095463799
 20
3816.409448179648
 30
0.0
  0
POINT
  5
703A
330
7030
100
AcDbEntity
  8
DEFPOINTS
 62
     0
440
 16777216
100
AcDbPoint
 10
835.1186099863761
 20
3816.409448179648
 30
0.0
  0
ENDBLK
  5
703B
330
7030
100
AcDbEntity
  8
0
100
AcDbBlockEnd
  0
BLOCK
  5
703D
330
703C
100
AcDbEntity
  8
0
100
AcDbBlockBegin
  2
*D16
 70
     1
 10
0.0
 20
0.0
 30
0.0
  3
*D16
  1

  0
LINE
  5
703E
330
703C
100
AcDbEntity
  8
OBJECT1
 62
     1
440
 16777216
370
    -2
100
AcDbLine
 10
1248.088095463798
 20
3834.159448179646
 30
0.0
 11
1248.088095463798
 21
3935.439761596918
 31
0.0
  0
LINE
  5
703F
330
703C
100
AcDbEntity
  8
OBJECT1
 62
     1
440
 16777216
370
    -2
100
AcDbLine
 10
1413.088095463798
 20
3834.159448179646
 30
0.0
 11
1413.088095463798
 21
3935.439761596918
 31
0.0
  0
LINE
  5
7040
330
703C
100
AcDbEntity
  8
OBJECT1
 62
     1
440
 16777216
370
    -2
100
AcDbLine
 10
1285.588095463799
 20
3916.689761596918
 30
0.0
 11
1375.588095463799
 21
3916.689761596918
 31
0.0
  0
INSERT
  5
7041
330
703C
100
AcDbEntity
  8
OBJECT1
 62
     1
440
 16777216
370
    -2
100
AcDbBlockReference
  2
_OPEN
 10
1248.088095463798
 20
3916.689761596918
 30
0.0
 41
37.5
 42
37.5
 43
37.5
 50
180.0
  0
INSERT
  5
7042
330
703C
100
AcDbEntity
  8
OBJECT1
 62
     1
440
 16777216
370
    -2
100
AcDbBlockReference
  2
_OPEN
 10
1413.088095463798
 20
3916.689761596918
 30
0.0
 41
37.5
 42
37.5
 43
37.5
  0
MTEXT
  5
7043
330
703C
100
AcDbEntity
  8
OBJECT1
 62
     2
440
 16777216
100
AcDbMText
 10
1330.588095463798
 20
3954.189761596918
 30
0.0
 40
45.0
 41
0.0
 46
0.0
 71
     5
 72
     1
  1
\A1;%%c165
 73
     1
 44
1.0
  0
POINT
  5
7044
330
703C
100
AcDbEntity
  8
DEFPOINTS
 62
     0
440
 16777216
100
AcDbPoint
 10
1248.088095463798
 20
3815.409448179648
 30
0.0
  0
POINT
  5
7045
330
703C
100
AcDbEntity
  8
DEFPOINTS
 62
     0
440
 16777216
100
AcDbPoint
 10
1413.088095463798
 20
3815.409448179648
 30
0.0
  0
POINT
  5
7046
330
703C
100
AcDbEntity
  8
DEFPOINTS
 62
     0
440
 16777216
100
AcDbPoint
 10
1413.088095463798
 20
3916.689761596918
 30
0.0
  0
ENDBLK
  5
7047
330
703C
100
AcDbEntity
  8
0
100
AcDbBlockEnd
  0
BLOCK
  5
7049
330
7048
100
AcDbEntity
  8
0
100
AcDbBlockBegin
  2
*D17
 70
     1
 10
0.0
 20
0.0
 30
0.0
  3
*D17
  1

  0
LINE
  5
704A
330
7048
100
AcDbEntity
  8
OBJECT1
 62
     1
440
 16777216
370
    -2
100
AcDbLine
 10
1230.338095463799
 20
3816.409448179648
 30
0.0
 11
921.368609986376
 21
3816.409448179648
 31
0.0
  0
LINE
  5
704B
330
7048
100
AcDbEntity
  8
OBJECT1
 62
     1
440
 16777216
370
    -2
100
AcDbLine
 10
1229.238095463798
 20
3165.409448179647
 30
0.0
 11
921.368609986376
 21
3165.409448179648
 31
0.0
  0
LINE
  5
704C
330
7048
100
AcDbEntity
  8
OBJECT1
 62
     1
440
 16777216
370
    -2
100
AcDbLine
 10
940.118609986376
 20
3778.909448179648
 30
0.0
 11
940.118609986376
 21
3202.909448179648
 31
0.0
  0
INSERT
  5
704D
330
7048
100
AcDbEntity
  8
OBJECT1
 62
     1
440
 16777216
370
    -2
100
AcDbBlockReference
  2
_OPEN
 10
940.118609986376
 20
3816.409448179648
 30
0.0
 41
37.5
 42
37.5
 43
37.5
 50
90.0
  0
INSERT
  5
704E
330
7048
100
AcDbEntity
  8
OBJECT1
 62
     1
440
 16777216
370
    -2
100
AcDbBlockReference
  2
_OPEN
 10
940.118609986376
 20
3165.409448179648
 30
0.0
 41
37.5
 42
37.5
 43
37.5
 50
270.0
  0
MTEXT
  5
704F
330
7048
100
AcDbEntity
  8
OBJECT1
 62
     2
440
 16777216
100
AcDbMText
 10
900.3686099863754
 20
3490.909448179647
 30
0.0
 40
45.0
 41
0.0
 46
0.0
 71
     5
 72
     1
  1
\A1;器具部：(650)
 11
0.0000000000000001
 21
1.0
 31
0.0
 73
     1
 44
1.0
  0
POINT
  5
7050
330
7048
100
AcDbEntity
  8
DEFPOINTS
 62
     0
440
 16777216
100
AcDbPoint
 10
1249.088095463799
 20
3816.409448179648
 30
0.0
  0
POINT
  5
7051
330
7048
100
AcDbEntity
  8
DEFPOINTS
 62
     0
440
 16777216
100
AcDbPoint
 10
1247.988095463798
 20
3165.409448179647
 30
0.0
  0
POINT
  5
7052
330
7048
100
AcDbEntity
  8
DEFPOINTS
 62
     0
440
 16777216
100
AcDbPoint
 10
940.118609986376
 20
3165.409448179648
 30
0.0
  0
ENDBLK
  5
7053
330
7048
100
AcDbEntity
  8
0
100
AcDbBlockEnd
  0
BLOCK
  5
70D1
330
705E
100
AcDbEntity
  8
0
100
AcDbBlockBegin
  2
A$C00F36288
 70
     0
 10
0.0
 20
0.0
 30
0.0
  3
A$C00F36288
  1

  0
DIMENSION
  5
705F
330
705E
100
AcDbEntity
  8
OBJECT1
100
AcDbDimension
280
     0
  2
*D15
 10
57.77214342242496
 20
3227.16655353936
 30
0.0
 11
20.26771428856603
 21
1926.66655353936
 31
0.0
 12
-777.3464665639512
 22
-589.2428946402869
 32
0.0
  1
2600
 71
     5
 42
2600.999999999999
 73
     0
 74
     0
 75
     0
  3
Standard
100
AcDbAlignedDimension
 13
301.8428612489338
 23
626.1665535393602
 33
0.0
 14
471.7416288998476
 24
3227.16655353936
 34
0.0
 50
90.0
100
AcDbRotatedDimension
  0
LINE
  5
7060
330
705E
100
AcDbEntity
  8
CENTER
 48
7.5
100
AcDbLine
 10
553.2416288998468
 20
0.0000008196527688
 30
0.0
 11
553.2416288998468
 21
3273.628027402227
 31
0.0
  0
LWPOLYLINE
  5
7061
330
705E
100
AcDbEntity
  8
OBJECT1
100
AcDbPolyline
 90
        4
 70
     1
 43
0.0
 10
470.6416288998468
 20
2576.166553539361
 10
635.8416288998478
 20
2576.166553539361
 10
635.8416288998478
 20
76.16655353936028
 10
470.6416288998468
 20
76.16655353936028
  0
LEADER
  5
7062
330
705E
100
AcDbEntity
  8
OBJECT1
100
AcDbLeader
  3
Standard
 76
     2
 10
604.7451780607438
 20
2835.027160245886
 30
0.0
 10
807.1318256436379
 20
2931.935715705644
 30
0.0
  0
LEADER
  5
7063
330
705E
100
AcDbEntity
  8
OBJECT1
100
AcDbLeader
  3
Standard
 76
     2
 10
576.7416289445507
 20
2436.66655367347
 30
0.0
 10
804.4410079366926
 20
2515.139788984605
 30
0.0
  0
LEADER
  5
7064
330
705E
100
AcDbEntity
  8
OBJECT1
100
AcDbLeader
  3
Standard
 76
     2
 10
635.7416288998465
 20
3196.16655353936
 30
0.0
 10
804.9667614863107
 20
3254.435439551484
 30
0.0
  0
LEADER
  5
7065
330
705E
100
AcDbEntity
  8
OBJECT1
100
AcDbLeader
  3
Standard
 73
     0
 74
     0
 75
     1
 76
     3
 10
637.1070091640547
 20
2571.666553539359
 30
0.0
 10
802.4631024438487
 20
2623.178673984616
 30
0.0
 10
802.6431024438487
 20
2623.178673984616
 30
0.0
1001
ACAD
1000
DSTYLE
1002
{
1070
   147
1040
1.0
1070
    77
1070
     1
1002
}
  0
MTEXT
  5
7066
102
{ACAD_REACTORS
330
7065
102
}
330
705E
100
AcDbEntity
  8
OBJECT1
 62
     2
100
AcDbMText
 10
817.6431024438485
 20
2638.178673984616
 30
0.0
 40
45.0
 41
0.0
 46
0.0
 71
     7
 72
     1
  1
接合部
 73
     1
 44
1.0
  0
LWPOLYLINE
  5
7067
330
705E
100
AcDbEntity
  8
OBJECT1
100
AcDbPolyline
 90
        4
 70
     1
 43
0.0
 10
470.7416288998468
 20
3166.166553539361
 10
635.7416288998465
 20
3166.166553539361
 10
635.7416288998465
 20
2586.166553539359
 10
470.7416288998468
 20
2586.166553539359
  0
LINE
  5
7068
330
705E
100
AcDbEntity
  8
HIDE
 48
0.75
100
AcDbLine
 10
477.7416288998477
 20
2572.166553539361
 30
0.0
 11
475.7416288998476
 21
2539.166553539358
 31
0.0
  0
LINE
  5
7069
330
705E
100
AcDbEntity
  8
HIDE
 48
0.75
100
AcDbLine
 10
628.7416288998478
 20
2572.166553539361
 30
0.0
 11
630.7416288998479
 21
2539.166553539358
 31
0.0
  0
LINE
  5
706A
330
705E
100
AcDbEntity
  8
HIDE
 48
0.75
100
AcDbLine
 10
576.7416289445507
 20
2503.166552466476
 30
0.0
 11
576.7416289445507
 21
2370.166554880464
 31
0.0
  0
LINE
  5
706B
330
705E
100
AcDbEntity
  8
HIDE
 48
0.75
100
AcDbLine
 10
529.7416288551437
 20
2370.166554880464
 30
0.0
 11
529.7416288551437
 21
2503.166552466476
 31
0.0
  0
LINE
  5
706C
330
705E
100
AcDbEntity
  8
HIDE
 48
0.75
100
AcDbLine
 10
529.7416288551437
 20
2355.166550559128
 30
0.0
 11
575.9416284408916
 21
2355.166550559128
 31
0.0
  0
LINE
  5
706D
330
705E
100
AcDbEntity
  8
HIDE
 48
0.75
100
AcDbLine
 10
529.7416288551437
 20
2355.166550559128
 30
0.0
 11
529.7416288551437
 21
2368.430882525766
 31
0.0
  0
CIRCLE
  5
706E
330
705E
100
AcDbEntity
  8
HIDE
 48
0.75
100
AcDbCircle
 10
553.2416288998468
 20
2362.166553539359
 30
0.0
 40
2.250000000000397
  0
LINE
  5
706F
330
705E
100
AcDbEntity
  8
HIDE
 48
0.75
100
AcDbLine
 10
576.7416289445507
 20
2370.166554880464
 30
0.0
 11
576.7416289445507
 21
2368.430882525766
 31
0.0
  0
LINE
  5
7070
330
705E
100
AcDbEntity
  8
HIDE
 48
0.75
100
AcDbLine
 10
575.9416284408916
 20
2368.430882525766
 30
0.0
 11
575.9416284408916
 21
2370.166554880464
 31
0.0
  0
LINE
  5
7071
330
705E
100
AcDbEntity
  8
HIDE
 48
0.75
100
AcDbLine
 10
576.7416289445507
 20
2368.430882525766
 30
0.0
 11
575.9416284408916
 21
2368.430882525766
 31
0.0
  0
LINE
  5
7072
330
705E
100
AcDbEntity
  8
HIDE
 48
0.75
100
AcDbLine
 10
576.7416289445507
 20
2356.902222913826
 30
0.0
 11
576.7416289445507
 21
2355.166550559128
 31
0.0
  0
LINE
  5
7073
330
705E
100
AcDbEntity
  8
HIDE
 48
0.75
100
AcDbLine
 10
575.9416284408916
 20
2355.166550559128
 30
0.0
 11
575.9416284408916
 21
2356.902222913826
 31
0.0
  0
LINE
  5
7074
330
705E
100
AcDbEntity
  8
HIDE
 48
0.75
100
AcDbLine
 10
576.7416289445507
 20
2355.166550559128
 30
0.0
 11
575.9416284408916
 21
2355.166550559128
 31
0.0
  0
LINE
  5
7075
330
705E
100
AcDbEntity
  8
HIDE
 48
0.75
100
AcDbLine
 10
575.9416284408916
 20
2356.902222913826
 30
0.0
 11
576.7416289445507
 21
2356.902222913826
 31
0.0
  0
LINE
  5
7076
330
705E
100
AcDbEntity
  8
HIDE
 48
0.75
100
AcDbLine
 10
576.7416289445507
 20
2356.902222913826
 30
0.0
 11
576.7416289445507
 21
2368.430882525766
 31
0.0
  0
LINE
  5
7077
330
705E
100
AcDbEntity
  8
HIDE
 48
0.75
100
AcDbLine
 10
575.9416284408916
 20
2356.902222913826
 30
0.0
 11
575.9416284408916
 21
2368.430882525766
 31
0.0
  0
LINE
  5
7078
330
705E
100
AcDbEntity
  8
HIDE
 48
0.75
100
AcDbLine
 10
576.7416289445507
 20
2370.166554880464
 30
0.0
 11
574.7416286167258
 21
2370.166554880464
 31
0.0
  0
LINE
  5
7079
330
705E
100
AcDbEntity
  8
HIDE
 48
0.75
100
AcDbLine
 10
530.5416293588027
 20
2370.166554880464
 30
0.0
 11
530.5416293588027
 21
2368.430882525766
 31
0.0
  0
LINE
  5
707A
330
705E
100
AcDbEntity
  8
HIDE
 48
0.75
100
AcDbLine
 10
529.7416288551437
 20
2368.430882525766
 30
0.0
 11
529.7416288551437
 21
2370.166554880464
 31
0.0
  0
LINE
  5
707B
330
705E
100
AcDbEntity
  8
HIDE
 48
0.75
100
AcDbLine
 10
530.5416293588027
 20
2368.430882525766
 30
0.0
 11
529.7416288551437
 21
2368.430882525766
 31
0.0
  0
LINE
  5
707C
330
705E
100
AcDbEntity
  8
HIDE
 48
0.75
100
AcDbLine
 10
530.5416293588027
 20
2368.430882525766
 30
0.0
 11
530.5416293588027
 21
2355.166550559128
 31
0.0
  0
LINE
  5
707D
330
705E
100
AcDbEntity
  8
HIDE
 48
0.75
100
AcDbLine
 10
531.7416291829697
 20
2370.166554880464
 30
0.0
 11
529.7416288551437
 21
2370.166554880464
 31
0.0
  0
CIRCLE
  5
707E
330
705E
100
AcDbEntity
  8
HIDE
 48
0.75
100
AcDbCircle
 10
553.2416288998468
 20
2373.207206966654
 30
0.0
 40
1.5
  0
LINE
  5
707F
330
705E
100
AcDbEntity
  8
HIDE
 48
0.75
100
AcDbLine
 10
574.7416286167258
 20
2370.166554880464
 30
0.0
 11
531.7416291829697
 21
2370.166554880464
 31
0.0
  0
LINE
  5
7080
330
705E
100
AcDbEntity
  8
HIDE
 48
0.75
100
AcDbLine
 10
630.7416288998479
 20
2539.166553539358
 30
0.0
 11
553.2416288998468
 21
2539.166553539358
 31
0.0
  0
LINE
  5
7081
330
705E
100
AcDbEntity
  8
HIDE
 48
0.75
100
AcDbLine
 10
629.7416288998465
 20
2536.166553539358
 30
0.0
 11
553.2416288998468
 21
2536.166553539361
 31
0.0
  0
LINE
  5
7082
330
705E
100
AcDbEntity
  8
HIDE
 48
0.75
100
AcDbLine
 10
475.7416288998476
 20
2539.166553539358
 30
0.0
 11
553.2416288998468
 21
2539.166553539358
 31
0.0
  0
LINE
  5
7083
330
705E
100
AcDbEntity
  8
HIDE
 48
0.75
100
AcDbLine
 10
476.7416288998476
 20
2536.166553539358
 30
0.0
 11
553.2416288998468
 21
2536.166553539361
 31
0.0
  0
LINE
  5
7084
330
705E
100
AcDbEntity
  8
HIDE
 48
0.75
100
AcDbLine
 10
475.7416288998476
 20
2539.166553539358
 30
0.0
 11
475.7416288998476
 21
2537.166553539358
 31
0.0
  0
ARC
  5
7085
330
705E
100
AcDbEntity
  8
HIDE
 48
0.75
100
AcDbCircle
 10
476.7416288998476
 20
2537.166553539357
 30
0.0
 40
1.0
100
AcDbArc
 50
180.0
 51
270.0
  0
POINT
  5
7086
330
705E
100
AcDbEntity
  8
HIDE
 48
0.75
100
AcDbPoint
 10
475.7416288998476
 20
2536.166553539358
 30
0.0
  0
ARC
  5
7087
330
705E
100
AcDbEntity
  8
HIDE
 48
0.75
100
AcDbCircle
 10
574.7416288998477
 20
2503.16655353936
 30
0.0
 40
2.000000000000027
100
AcDbArc
 50
0.0
 51
90.0
  0
LINE
  5
7088
330
705E
100
AcDbEntity
  8
HIDE
 48
0.75
100
AcDbLine
 10
558.7416288700446
 20
2506.666552108848
 30
0.0
 11
560.7416287322087
 21
2506.666552108848
 31
0.0
  0
ARC
  5
7089
330
705E
100
AcDbEntity
  8
HIDE
 48
0.75
100
AcDbCircle
 10
558.7416288998476
 20
2514.666553539359
 30
0.0
 40
2.0
100
AcDbArc
 50
0.0
 51
90.0
  0
LINE
  5
708A
330
705E
100
AcDbEntity
  8
HIDE
 48
0.75
100
AcDbLine
 10
558.7416288700446
 20
2505.166556519592
 30
0.0
 11
558.7416288700446
 21
2506.666552108848
 31
0.0
  0
LINE
  5
708B
330
705E
100
AcDbEntity
  8
HIDE
 48
0.75
100
AcDbLine
 10
560.7416287322087
 20
2514.666553420151
 30
0.0
 11
560.7416287322087
 21
2506.666552108848
 31
0.0
  0
LINE
  5
708C
330
705E
100
AcDbEntity
  8
HIDE
 48
0.75
100
AcDbLine
 10
560.7416287322087
 20
2506.666552108848
 30
0.0
 11
560.7416287322087
 21
2505.166556519592
 31
0.0
  0
LINE
  5
708D
330
705E
100
AcDbEntity
  8
HIDE
 48
0.75
100
AcDbLine
 10
545.7416290674857
 20
2514.666553420151
 30
0.0
 11
545.7416290674857
 21
2506.666552108848
 31
0.0
  0
LINE
  5
708E
330
705E
100
AcDbEntity
  8
HIDE
 48
0.75
100
AcDbLine
 10
545.7416290674857
 20
2505.166556519592
 30
0.0
 11
545.7416290674857
 21
2506.666552108848
 31
0.0
  0
LINE
  5
708F
330
705E
100
AcDbEntity
  8
HIDE
 48
0.75
100
AcDbLine
 10
547.7416289296497
 20
2506.666552108848
 30
0.0
 11
547.7416289296497
 21
2505.166556519592
 31
0.0
  0
LINE
  5
7090
330
705E
100
AcDbEntity
  8
HIDE
 48
0.75
100
AcDbLine
 10
545.7416290674857
 20
2506.666552108848
 30
0.0
 11
547.7416289296497
 21
2506.666552108848
 31
0.0
  0
ARC
  5
7091
330
705E
100
AcDbEntity
  8
HIDE
 48
0.75
100
AcDbCircle
 10
547.7416288998467
 20
2514.666553539359
 30
0.0
 40
2.0
100
AcDbArc
 50
90.0
 51
180.0
  0
ARC
  5
7092
330
705E
100
AcDbEntity
  8
HIDE
 48
0.75
100
AcDbCircle
 10
531.7416288998467
 20
2503.16655353936
 30
0.0
 40
2.000000000000027
100
AcDbArc
 50
90.0
 51
180.0
  0
CIRCLE
  5
7093
330
705E
100
AcDbEntity
  8
HIDE
 48
0.75
100
AcDbCircle
 10
553.2416288998468
 20
2512.166553539361
 30
0.0
 40
2.250000000000014
  0
LINE
  5
7094
330
705E
100
AcDbEntity
  8
HIDE
 48
0.75
100
AcDbLine
 10
531.7416291829697
 20
2505.166556519592
 30
0.0
 11
574.7416286167258
 21
2505.166556519592
 31
0.0
  0
LINE
  5
7095
330
705E
100
AcDbEntity
  8
HIDE
 48
0.75
100
AcDbLine
 10
547.7416289296497
 20
2516.666550022686
 30
0.0
 11
558.7416288700446
 21
2516.666550022686
 31
0.0
  0
LINE
  5
7096
330
705E
100
AcDbEntity
  8
HIDE
 48
0.75
100
AcDbLine
 10
547.7416289296497
 20
2506.666552108848
 30
0.0
 11
558.7416288700446
 21
2506.666552108848
 31
0.0
  0
LINE
  5
7097
330
705E
100
AcDbEntity
  8
HIDE
 48
0.75
100
AcDbLine
 10
630.7416288998479
 20
2539.166553539358
 30
0.0
 11
630.7416288998479
 21
2537.166553539358
 31
0.0
  0
ARC
  5
7098
330
705E
100
AcDbEntity
  8
HIDE
 48
0.75
100
AcDbCircle
 10
629.7416288998465
 20
2537.166553539357
 30
0.0
 40
1.0
100
AcDbArc
 50
270.0
 51
0.0
  0
POINT
  5
7099
330
705E
100
AcDbEntity
  8
HIDE
 48
0.75
100
AcDbPoint
 10
630.7416288998479
 20
2536.166553539358
 30
0.0
  0
LINE
  5
709A
330
705E
100
AcDbEntity
  8
HIDE
 48
0.75
100
AcDbLine
 10
628.7416288998478
 20
2572.166553539361
 30
0.0
 11
553.2416288998468
 21
2572.166553539361
 31
0.0
  0
LINE
  5
709B
330
705E
100
AcDbEntity
  8
OBJECT1
100
AcDbLine
 10
635.7416288998465
 20
2576.166553539361
 30
0.0
 11
553.2416288998468
 21
2576.166553539361
 31
0.0
  0
LINE
  5
709C
330
705E
100
AcDbEntity
  8
OBJECT1
100
AcDbLine
 10
635.7416288998465
 20
2586.166553539359
 30
0.0
 11
553.2416288998468
 21
2586.166553539359
 31
0.0
  0
LINE
  5
709D
330
705E
100
AcDbEntity
  8
HIDE
 48
0.75
100
AcDbLine
 10
477.7416288998477
 20
2572.166553539361
 30
0.0
 11
553.2416288998468
 21
2572.166553539361
 31
0.0
  0
LINE
  5
709E
330
705E
100
AcDbEntity
  8
OBJECT1
100
AcDbLine
 10
470.7416288998468
 20
2576.166553539361
 30
0.0
 11
553.2416288998468
 21
2576.166553539361
 31
0.0
  0
LINE
  5
709F
330
705E
100
AcDbEntity
  8
OBJECT1
100
AcDbLine
 10
470.7416288998468
 20
2586.166553539359
 30
0.0
 11
553.2416288998468
 21
2586.166553539359
 31
0.0
  0
LINE
  5
70A0
330
705E
100
AcDbEntity
  8
CENTER
 48
7.5
100
AcDbLine
 10
468.1730384730008
 20
2569.666553539361
 30
0.0
 11
473.2715813375916
 21
2569.666553539361
 31
0.0
  0
LINE
  5
70A1
330
705E
100
AcDbEntity
  8
PARTS
100
AcDbLine
 10
470.6416288998468
 20
2567.666553539361
 30
0.0
 11
469.3762486356397
 21
2567.666553539361
 31
0.0
  0
LINE
  5
70A2
330
705E
100
AcDbEntity
  8
PARTS
100
AcDbLine
 10
470.6416288998468
 20
2571.666553539359
 30
0.0
 11
469.3762486356397
 21
2571.666553539359
 31
0.0
  0
LINE
  5
70A3
330
705E
100
AcDbEntity
  8
PARTS
100
AcDbLine
 10
470.3762486356397
 20
2566.666553539361
 30
0.0
 11
470.3762486356397
 21
2572.66655353936
 31
0.0
  0
LWPOLYLINE
  5
70A4
330
705E
100
AcDbEntity
  8
PARTS
100
AcDbPolyline
 90
        6
 70
     0
 43
0.0
 10
470.6416288998468
 20
2566.666553539361
 10
470.3762486356397
 20
2566.666553539361
 10
469.3762486356397
 20
2567.666553539361
 10
469.3762486356397
 20
2571.666553539361
 10
470.3762486356397
 20
2572.66655353936
 10
470.6416288998468
 20
2572.66655353936
  0
LINE
  5
70A5
330
705E
100
AcDbEntity
  8
OBJECT1
100
AcDbLine
 10
470.7416288998468
 20
2586.166553539359
 30
0.0
 11
470.7416288998468
 21
2576.166553539361
 31
0.0
  0
LINE
  5
70A6
330
705E
100
AcDbEntity
  8
HIDE
 48
0.75
100
AcDbLine
 10
475.7416288998476
 20
2576.166553539361
 30
0.0
 11
475.7416288998476
 21
2573.166553539359
 31
0.0
  0
LINE
  5
70A7
330
705E
100
AcDbEntity
  8
HIDE
 48
0.75
100
AcDbLine
 10
475.7416288998476
 20
2573.166553539359
 30
0.0
 11
477.7416288998477
 21
2572.166553539361
 31
0.0
  0
LINE
  5
70A8
330
705E
100
AcDbEntity
  8
OBJECT1
  6
CENTER
 62
     4
100
AcDbLine
 10
549.1018178504007
 20
2569.666553539361
 30
0.0
 11
557.3814399492937
 21
2569.666553539361
 31
0.0
  0
LINE
  5
70A9
330
705E
100
AcDbEntity
  8
PARTS
100
AcDbLine
 10
554.1708807750888
 20
2571.166553539359
 30
0.0
 11
552.3123562836176
 21
2571.16655353936
 31
0.0
  0
LINE
  5
70AA
330
705E
100
AcDbEntity
  8
PARTS
100
AcDbLine
 10
552.3123639920877
 20
2568.166553539361
 30
0.0
 11
551.4463300759298
 21
2569.666560215053
 31
0.0
  0
LINE
  5
70AB
330
705E
100
AcDbEntity
  8
PARTS
100
AcDbLine
 10
554.1709083053287
 20
2568.166553539361
 30
0.0
 11
552.3123639920877
 21
2568.166553539361
 31
0.0
  0
LINE
  5
70AC
330
705E
100
AcDbEntity
  8
PARTS
100
AcDbLine
 10
555.0369246021318
 20
2569.666529697599
 30
0.0
 11
554.1709083053287
 21
2568.166553539361
 31
0.0
  0
LINE
  5
70AD
330
705E
100
AcDbEntity
  8
PARTS
100
AcDbLine
 10
554.1708807750888
 20
2571.166553539359
 30
0.0
 11
555.0369246021318
 21
2569.666529697599
 31
0.0
  0
LINE
  5
70AE
330
705E
100
AcDbEntity
  8
PARTS
100
AcDbLine
 10
551.4463300759298
 20
2569.666560215053
 30
0.0
 11
552.3123562836176
 21
2571.16655353936
 31
0.0
  0
LINE
  5
70AF
330
705E
100
AcDbEntity
  8
PARTS
100
AcDbLine
 10
554.7482336588757
 20
2572.166546321408
 30
0.0
 11
556.1916060090577
 21
2569.666565523438
 31
0.0
  0
LINE
  5
70B0
330
705E
100
AcDbEntity
  8
PARTS
100
AcDbLine
 10
556.1916352397877
 20
2569.666544500596
 30
0.0
 11
554.7482562138577
 21
2567.166552139955
 31
0.0
  0
LINE
  5
70B1
330
705E
100
AcDbEntity
  8
PARTS
100
AcDbLine
 10
550.2916261786035
 20
2569.666557086587
 30
0.0
 11
551.7350032971758
 21
2572.166546143608
 31
0.0
  0
LINE
  5
70B2
330
705E
100
AcDbEntity
  8
PARTS
100
AcDbLine
 10
551.7350157542598
 20
2567.166552710314
 30
0.0
 11
550.2916357746516
 21
2569.666546722765
 31
0.0
  0
LINE
  5
70B3
330
705E
100
AcDbEntity
  8
PARTS
100
AcDbLine
 10
554.7482454067908
 20
2567.16655353936
 30
0.0
 11
551.7350007778845
 21
2567.16655353936
 31
0.0
  0
CIRCLE
  5
70B4
330
705E
100
AcDbEntity
  8
PARTS
100
AcDbCircle
 10
553.2416288998468
 20
2569.666553539361
 30
0.0
 40
3.000023576733825
  0
LINE
  5
70B5
330
705E
100
AcDbEntity
  8
CENTER
 48
7.5
100
AcDbLine
 10
638.3102193266938
 20
2569.666553539361
 30
0.0
 11
633.2116764621027
 21
2569.666553539361
 31
0.0
  0
LINE
  5
70B6
330
705E
100
AcDbEntity
  8
PARTS
100
AcDbLine
 10
636.1070091640547
 20
2566.666553539361
 30
0.0
 11
636.1070091640547
 21
2572.66655353936
 31
0.0
  0
LINE
  5
70B7
330
705E
100
AcDbEntity
  8
PARTS
100
AcDbLine
 10
635.8416288998478
 20
2571.666553539359
 30
0.0
 11
637.1070091640547
 21
2571.666553539359
 31
0.0
  0
LWPOLYLINE
  5
70B8
330
705E
100
AcDbEntity
  8
PARTS
100
AcDbPolyline
 90
        6
 70
     0
 43
0.0
 10
635.8416288998478
 20
2566.666553539361
 10
636.1070091640547
 20
2566.666553539361
 10
637.1070091640547
 20
2567.666553539361
 10
637.1070091640547
 20
2571.666553539361
 10
636.1070091640547
 20
2572.66655353936
 10
635.8416288998478
 20
2572.66655353936
  0
LINE
  5
70B9
330
705E
100
AcDbEntity
  8
PARTS
100
AcDbLine
 10
635.8416288998478
 20
2567.666553539361
 30
0.0
 11
637.1070091640547
 21
2567.666553539361
 31
0.0
  0
LINE
  5
70BA
330
705E
100
AcDbEntity
  8
OBJECT1
100
AcDbLine
 10
635.7416288998465
 20
2586.166553539359
 30
0.0
 11
635.7416288998465
 21
2576.166553539361
 31
0.0
  0
LINE
  5
70BB
330
705E
100
AcDbEntity
  8
HIDE
 48
0.75
100
AcDbLine
 10
630.7416288998479
 20
2576.166553539361
 30
0.0
 11
630.7416288998479
 21
2573.166553539359
 31
0.0
  0
LINE
  5
70BC
330
705E
100
AcDbEntity
  8
HIDE
 48
0.75
100
AcDbLine
 10
630.7416288998479
 20
2573.166553539359
 30
0.0
 11
628.7416288998478
 21
2572.166553539361
 31
0.0
  0
DIMENSION
  5
70BD
330
705E
100
AcDbEntity
  8
OBJECT1
100
AcDbDimension
280
     0
  2
*D16
 10
635.7416288998465
 20
3327.446866956631
 30
0.0
 11
553.2416288998468
 21
3364.946866956631
 31
0.0
 12
-777.3464665639512
 22
-589.2428946402869
 32
0.0
 71
     5
 42
165.0
 73
     0
 74
     0
 75
     0
  3
Standard
100
AcDbAlignedDimension
 13
470.7416288998468
 23
3226.166553539361
 33
0.0
 14
635.7416288998465
 24
3226.166553539361
 34
0.0
100
AcDbRotatedDimension
1001
ACAD
1000
DSTYLE
1002
{
1070
     3
1000
%%c<>
1002
}
  0
LINE
  5
70BE
330
705E
100
AcDbEntity
  8
OBJECT1
100
AcDbLine
 10
635.7416288998465
 20
3166.166553539361
 30
0.0
 11
470.7416288998468
 21
3166.166553539361
 31
0.0
  0
LINE
  5
70BF
330
705E
100
AcDbEntity
  8
OBJECT1
100
AcDbLine
 10
471.7416288998476
 20
3227.16655353936
 30
0.0
 11
634.7416288998479
 21
3227.16655353936
 31
0.0
  0
ARC
  5
70C0
330
705E
100
AcDbEntity
  8
OBJECT1
100
AcDbCircle
 10
471.7416288998476
 20
3226.166553539361
 30
0.0
 40
1.0
100
AcDbArc
 50
90.0
 51
180.0
  0
LINE
  5
70C1
330
705E
100
AcDbEntity
  8
OBJECT1
100
AcDbLine
 10
470.7416288998468
 20
3166.166553539361
 30
0.0
 11
470.7416288998468
 21
3226.166553539361
 31
0.0
  0
ARC
  5
70C2
330
705E
100
AcDbEntity
  8
OBJECT1
100
AcDbCircle
 10
634.7416288998479
 20
3226.166553539361
 30
0.0
 40
1.0
100
AcDbArc
 50
0.0
 51
90.0
  0
LINE
  5
70C3
330
705E
100
AcDbEntity
  8
OBJECT1
100
AcDbLine
 10
635.7416288998465
 20
3166.166553539361
 30
0.0
 11
635.7416288998465
 21
3226.166553539361
 31
0.0
  0
CIRCLE
  5
70C4
330
705E
100
AcDbEntity
  8
DIM
100
AcDbCircle
 10
846.9893438386616
 20
2529.790355935177
 30
0.0
 40
45.0
  0
MTEXT
  5
70C5
330
705E
100
AcDbEntity
  8
DIM
100
AcDbMText
 10
846.9893438386616
 20
2529.790355935177
 30
0.0
 40
45.0
 41
0.0
 46
0.0
 71
     5
 72
     5
  1
5
 73
     1
 44
1.0
  0
CIRCLE
  5
70C6
330
705E
100
AcDbEntity
  8
DIM
100
AcDbCircle
 10
847.5150973882799
 20
3269.086006502056
 30
0.0
 40
45.0
  0
CIRCLE
  5
70C7
330
705E
100
AcDbEntity
  8
DIM
100
AcDbCircle
 10
847.7188892796398
 20
2951.369970654243
 30
0.0
 40
45.0
  0
MTEXT
  5
70C8
330
705E
100
AcDbEntity
  8
DIM
100
AcDbMText
 10
847.7188892796398
 20
2951.369970654243
 30
0.0
 40
45.0
 41
0.0
 46
0.0
 71
     5
 72
     5
  1
3
 73
     1
 44
1.0
  0
MTEXT
  5
70C9
330
705E
100
AcDbEntity
  8
DIM
100
AcDbMText
 10
847.5150973882799
 20
3269.086006502056
 30
0.0
 40
45.0
 41
0.0
 46
0.0
 71
     5
 72
     5
  1
1
 73
     1
 44
1.0
  0
DIMENSION
  5
70CA
330
705E
100
AcDbEntity
  8
OBJECT1
100
AcDbDimension
280
     0
  2
*D17
 10
162.7721434224247
 20
2576.166553539361
 30
0.0
 11
123.0221434224241
 21
2901.666553539361
 31
0.0
 12
-777.3464665639512
 22
-589.2428946402869
 32
0.0
  1
器具部：<>
 71
     5
 42
650.999999999999
 73
     0
 74
     0
 75
     0
  3
Standard
100
AcDbAlignedDimension
 13
471.7416288998476
 23
3227.16655353936
 33
0.0
 14
470.6416288998468
 24
2576.166553539361
 34
0.0
 50
90.0
100
AcDbRotatedDimension
1001
ACAD
1000
DSTYLE
1002
{
1070
     3
1000
(<>)
1070
    45
1040
10.0
1002
}
  0
LEADER
  5
70CB
330
705E
100
AcDbEntity
  8
OBJECT1
100
AcDbLeader
  3
Standard
 76
     2
 10
578.9416488998467
 20
3036.166553539361
 30
0.0
 10
804.9667614863107
 20
3119.435439551484
 30
0.0
  0
CIRCLE
  5
70CC
330
705E
100
AcDbEntity
  8
DIM
100
AcDbCircle
 10
847.5150973882799
 20
3134.086006502056
 30
0.0
 40
45.0
  0
MTEXT
  5
70CD
330
705E
100
AcDbEntity
  8
DIM
100
AcDbMText
 10
847.5150973882799
 20
3134.086006502056
 30
0.0
 40
45.0
 41
0.0
 46
0.0
 71
     5
 72
     5
  1
4
 73
     1
 44
1.0
  0
LWPOLYLINE
  5
70CE
330
705E
100
AcDbEntity
  8
HIDE
 48
0.75
100
AcDbPolyline
 90
        4
 70
     1
 43
0.0
 10
517.5416088998477
 20
3083.666553539361
 10
588.9416488998468
 20
3083.666553539361
 10
588.9416488998468
 20
2668.66655353936
 10
517.5416088998477
 20
2668.66655353936
  0
ENDBLK
  5
70D2
330
705E
100
AcDbEntity
  8
0
100
AcDbBlockEnd
  0
ENDSEC
  0
SECTION
  2
ENTITIES
  0
SPLINE
  5
51BA
330
18
100
AcDbEntity
  8
1：主線
100
AcDbSpline
210
0.0000000000000223
220
-0.0000000000000351
230
1.0
 70
     9
 71
     3
 72
    38
 73
    34
 74
     0
 42
0.000000001
 43
0.0000000001
 40
0.0
 40
0.0
 40
0.0
 40
0.0
 40
0.377244205563716
 40
0.377244205563716
 40
0.7544884111274323
 40
0.7544884111274323
 40
1.131727215958038
 40
1.131727215958038
 40
1.508966020788646
 40
1.508966020788646
 40
1.886204825619254
 40
1.886204825619254
 40
2.263443630449861
 40
2.263443630449861
 40
2.640687836013578
 40
2.640687836013578
 40
3.017932041577293
 40
3.017932041577293
 40
3.395176247141009
 40
3.395176247141009
 40
3.772420452704726
 40
3.772420452704726
 40
4.149659257535333
 40
4.149659257535333
 40
4.52689806236594
 40
4.52689806236594
 40
4.904136867196547
 40
4.904136867196547
 40
5.281375672027155
 40
5.281375672027155
 40
5.65861987759087
 40
5.65861987759087
 40
6.035864083154587
 40
6.035864083154587
 40
6.035864083154587
 40
6.035864083154587
 10
1661.142904899192
 20
377.0633956011138
 30
-0.0000000000003916
 10
1661.142904899192
 20
376.549370741744
 30
0.0000000000000063
 10
1661.067283554954
 20
375.9426436237309
 30
-0.0000000000000222
 10
1660.754342998283
 20
374.7001586609345
 30
0.0000000000003473
 10
1660.516343622934
 20
374.0647692328712
 30
-0.0000000000004485
 10
1659.952896550161
 20
372.9418967789184
 30
-0.0000000000005053
 10
1659.589583854187
 20
372.3792227516719
 30
0.0000000000000063
 10
1658.76639115468
 20
371.4328374536212
 30
0.0000000000000915
 10
1658.305791101993
 20
371.0495214307977
 30
0.0000000000006315
 10
1657.416630711919
 20
370.5374880161207
 30
0.0000000000005463
 10
1656.929628909493
 20
370.3751164228006
 30
0.0000000000008305
 10
1656.011010792295
 20
370.3184595811503
 30
-0.0000000000006759
 10
1655.580013687748
 20
370.4237210155593
 30
-0.0000000000001074
 10
1654.889217507236
 20
370.824322816225
 30
-0.0000000000006474
 10
1654.583229725008
 20
371.1464508744116
 30
0.0000000000005463
 10
1654.174166632347
 20
371.9731615875871
 30
-0.0000000000005337
 10
1654.071837087325
 20
372.4774136038195
 30
0.0000000000000347
 10
1654.071837087329
 20
373.5054633225605
 30
0.0000000000000631
 10
1654.174166632347
 20
374.0968102106399
 30
-0.0000000000007895
 10
1654.583229725008
 20
375.2839418863573
 30
0.0000000000003473
 10
1654.889217507236
 20
375.8801793947882
 30
-0.0000000000001074
 10
1655.580013687748
 20
376.9297163749407
 30
-0.0000000000002495
 10
1656.011010792295
 20
377.4534135435351
 30
0.0000000000003473
 10
1656.929628909493
 20
378.3448469982371
 30
0.0000000000009158
 10
1657.416630711919
 20
378.712959264546
 30
0.0000000000006031
 10
1658.305791101993
 20
379.2249926792233
 30
0.0000000000006884
 10
1658.76639115468
 20
379.4025680290578
 30
0.00000000000066
 10
1659.589583854187
 20
379.5141767140563
 30
0.0000000000005747
 10
1659.952896550161
 20
379.4478921382997
 30
-0.0000000000001643
 10
1660.516343622935
 20
379.1206258114339
 30
0.0000000000000631
 10
1660.754342998283
 20
378.8376496728806
 30
0.0000000000001484
 10
1661.067283554956
 20
378.0662922467832
 30
-0.0000000000002495
 10
1661.142904899192
 20
377.5774204604842
 30
-0.0000000000003916
 10
1661.142904899192
 20
377.0633956011138
 30
-0.0000000000003916
  0
SPLINE
  5
51BB
330
18
100
AcDbEntity
  8
1：主線
100
AcDbSpline
210
0.0000000000044058
220
0.0000000000013979
230
-1.0
 70
     8
 71
     3
 72
    10
 73
     6
 74
     0
 42
0.000000001
 43
0.0000000001
 40
0.0
 40
0.0
 40
0.0
 40
0.0
 40
0.3772869405759736
 40
0.3772869405759736
 40
0.5626640281096309
 40
0.5626640281096309
 40
0.5626640281096309
 40
0.5626640281096309
 10
1660.249516956983
 20
377.5778635011534
 30
0.0000000000002052
 10
1660.249516956983
 20
378.0919465903344
 30
-0.0000000000001074
 10
1660.174385102032
 20
378.5805382779614
 30
0.0000000000000347
 10
1659.942377159121
 20
379.154919540772
 30
0.0000000000003189
 10
1659.846349374715
 20
379.3193068111332
 30
0.0000000000000915
 10
1659.735162112574
 20
379.4569056397313
 30
0.0000000000006315
  0
SPLINE
  5
51BC
330
18
100
AcDbEntity
  8
1：主線
100
AcDbSpline
210
-0.000000000000059
220
0.0000000000000243
230
1.0
 70
     8
 71
     3
 72
    18
 73
    14
 74
     0
 42
0.000000001
 43
0.0000000001
 40
3.933036214784614
 40
3.933036214784614
 40
3.933036214784614
 40
3.933036214784614
 40
4.150125065202978
 40
4.150125065202978
 40
4.527405749552405
 40
4.527405749552405
 40
4.904686433901833
 40
4.904686433901833
 40
5.28196711825126
 40
5.28196711825126
 40
5.659254058827231
 40
5.659254058827231
 40
6.036540999403206
 40
6.036540999403206
 40
6.036540999403206
 40
6.036540999403206
 10
1654.829377934082
 20
370.9340758763847
 30
-0.0000000000004769
 10
1655.064662632081
 20
370.8688718566414
 30
0.0000000000000631
 10
1655.320199003334
 20
370.8405708754213
 30
0.0000000000003189
 10
1656.045183546295
 20
370.8843754804466
 30
-0.0000000000001358
 10
1656.532697879949
 20
371.0464542364272
 30
0.0000000000001484
 10
1657.421956980997
 20
371.558544494972
 30
0.0000000000003473
 10
1657.882087287537
 20
371.9421779934246
 30
-0.0000000000001358
 10
1658.703492352331
 20
372.8895941884971
 30
-0.000000000000278
 10
1659.065514693116
 20
373.4529671872788
 30
0.0000000000004894
 10
1659.626530954321
 20
374.5771187257997
 30
0.0000000000000347
 10
1659.863245371758
 20
375.2132029189952
 30
0.0000000000000915
 10
1660.174385102032
 20
376.4567245756825
 30
0.00000000000012
 10
1660.249516956985
 20
377.0637804119729
 30
0.0000000000000347
 10
1660.249516956983
 20
377.5778635011534
 30
0.0000000000002052
  0
SPLINE
  5
51BD
330
18
100
AcDbEntity
  8
1：主線
100
AcDbSpline
210
0.0000000000000516
220
-0.0000000000001097
230
1.0
 70
     9
 71
     3
 72
    38
 73
    34
 74
     0
 42
0.000000001
 43
0.0000000001
 40
0.0
 40
0.0
 40
0.0
 40
0.0
 40
0.1507099198919023
 40
0.1507099198919023
 40
0.3014198397838046
 40
0.3014198397838046
 40
0.4521297053248376
 40
0.4521297053248376
 40
0.6028395708658703
 40
0.6028395708658703
 40
0.7535494364069029
 40
0.7535494364069029
 40
0.9042593019479355
 40
0.9042593019479355
 40
1.054969221839836
 40
1.054969221839836
 40
1.205679141731739
 40
1.205679141731739
 40
1.356389061623642
 40
1.356389061623642
 40
1.507098981515544
 40
1.507098981515544
 40
1.657808847056576
 40
1.657808847056576
 40
1.80851871259761
 40
1.80851871259761
 40
1.959228578138641
 40
1.959228578138641
 40
2.109938443679675
 40
2.109938443679675
 40
2.260648363571576
 40
2.260648363571576
 40
2.411358283463479
 40
2.411358283463479
 40
2.411358283463479
 40
2.411358283463479
 10
1659.23498532901
 20
529.0090050353629
 30
0.0000000000002763
 10
1659.23498532901
 20
528.8036509325414
 30
-0.0000000000000648
 10
1659.201593551708
 20
528.5629778366324
 30
0.0000000000000773
 10
1659.064886396949
 20
528.0726249491643
 30
0.0000000000000063
 10
1658.96146314932
 20
527.823005932711
 30
-0.0000000000002637
 10
1658.720536100489
 20
527.3822754279035
 30
0.0000000000000205
 10
1658.566941417466
 20
527.1617720456775
 30
-0.0000000000006048
 10
1658.226141539515
 20
526.7898590238854
 30
-0.0000000000002069
 10
1658.038824186817
 20
526.6385126914205
 30
-0.0000000000001216
 10
1657.683597627099
 20
526.4339513205053
 30
-0.0000000000000222
 10
1657.492063568985
 20
526.3671316351201
 30
0.0000000000007879
 10
1657.13602022749
 20
526.3377593352414
 30
-0.0000000000001358
 10
1656.971616581279
 20
526.3751396586845
 30
0.0000000000001057
 10
1656.710382577985
 20
526.5266948458457
 30
-0.0000000000001216
 10
1656.596142657239
 20
526.6509699799184
 30
0.0000000000006458
 10
1656.444174406723
 20
526.9750857574713
 30
0.0000000000000205
 10
1656.406558204268
 20
527.1748680773717
 30
-0.000000000000278
 10
1656.406558204266
 20
527.5855762830145
 30
0.0000000000004184
 10
1656.444174406723
 20
527.8238166942701
 30
-0.0000000000002922
 10
1656.596142657241
 20
528.3053813011747
 30
-0.0000000000001358
 10
1656.710382577985
 20
528.548771409847
 30
0.0000000000005747
 10
1656.971616581279
 20
528.9778079173183
 30
0.0000000000001768
 10
1657.136020227488
 20
529.1920868316172
 30
0.0000000000006884
 10
1657.492063568985
 20
529.5552217265622
 30
0.0000000000004326
 10
1657.683597627098
 20
529.7041398198757
 30
0.0000000000002052
 10
1658.038824186817
 20
529.9087011907909
 30
0.0000000000001057
 10
1658.226141539515
 20
529.9779491153276
 30
0.0000000000003615
 10
1658.566941417464
 20
530.0160995420533
 30
0.0000000000002336
 10
1658.720536100489
 20
529.984943686537
 30
-0.0000000000003632
 10
1658.96146314932
 20
529.8450824967126
 30
0.0000000000008731
 10
1659.064886396949
 20
529.7270362704207
 30
0.0000000000001342
 10
1659.201593551708
 20
529.4117087734316
 30
0.00000000000066
 10
1659.23498532901
 20
529.2143591381837
 30
0.0000000000006315
 10
1659.23498532901
 20
529.0090050353629
 30
0.0000000000002763
  0
SPLINE
  5
51BE
330
18
100
AcDbEntity
  8
1：主線
100
AcDbSpline
210
0.0000000000064288
220
0.0000000000010946
230
1.0
 70
     8
 71
     3
 72
     8
 73
     4
 74
     0
 42
0.000000001
 43
0.0000000001
 40
0.0
 40
0.0
 40
0.0
 40
0.0
 40
0.1200313875676943
 40
0.1200313875676943
 40
0.1200313875676943
 40
0.1200313875676943
 10
1658.3496015171
 20
529.5188636633138
 30
-0.0000000000001785
 10
1658.349601517102
 20
529.6824158563089
 30
0.0000000000001342
 10
1658.328470383294
 20
529.8408603950256
 30
0.0000000000004894
 10
1658.285408202915
 20
529.9781979144563
 30
-0.0000000000004485
  0
SPLINE
  5
51BF
330
18
100
AcDbEntity
  8
1：主線
100
AcDbSpline
210
0.0000000000007248
220
-0.0000000000004371
230
1.0
 70
     8
 71
     3
 72
    16
 73
    12
 74
     0
 42
0.000000001
 43
0.0000000001
 40
1.676279246731224
 40
1.676279246731224
 40
1.676279246731224
 40
1.676279246731224
 40
1.808550647219025
 40
1.808550647219025
 40
1.959263169715481
 40
1.959263169715481
 40
2.109975692211936
 40
2.109975692211936
 40
2.260688277585318
 40
2.260688277585318
 40
2.411400862958701
 40
2.411400862958701
 40
2.411400862958701
 40
2.411400862958701
 10
1656.495888529414
 20
526.8692396244254
 30
0.0000000000007594
 10
1656.654779412665
 20
526.8930426280443
 30
-0.0000000000001927
 10
1656.82144409007
 20
526.9554594026438
 30
-0.0000000000001216
 10
1657.154943841586
 20
527.1475091368293
 30
0.00000000000012
 10
1657.342184403566
 20
527.2989026630233
 30
0.0000000000000773
 10
1657.682700955578
 20
527.6709789087017
 30
-0.0000000000000648
 10
1657.83609335587
 20
527.8915959682372
 30
-0.0000000000008748
 10
1658.076640521547
 20
528.3325375756061
 30
-0.0000000000004201
 10
1658.179862526744
 20
528.5822696536679
 30
0.0000000000004184
 10
1658.316287102465
 20
529.0727853101511
 30
0.0000000000004326
 10
1658.349601517102
 20
529.3135059285646
 30
-0.0000000000001501
 10
1658.3496015171
 20
529.5188636633138
 30
-0.0000000000001785
  0
LINE
  5
51C0
330
18
100
AcDbEntity
  8
2：副線
100
AcDbLine
 10
1660.307779456683
 20
429.6082733057255
 30
0.0000000000002052
 11
1660.307779456683
 21
467.9740718967996
 31
0.0000000000005179
210
-0.0000000000000001
220
0.8175471248425397
230
0.5758617009853122
  0
LINE
  5
51C1
330
18
100
AcDbEntity
  8
2：副線
100
AcDbLine
 10
1661.573018016203
 20
431.706062510721
 30
-0.000000000000079
 11
1661.573018016203
 21
468.2433255401001
 31
0.0000000000002621
210
-0.0000000000000001
220
0.8175471248425397
230
0.5758617009853122
  0
LINE
  5
51C2
330
18
100
AcDbEntity
  8
2：副線
100
AcDbLine
 10
1663.561948977647
 20
437.5919236191788
 30
0.0000000000002336
 11
1663.561948977647
 21
466.9799321054969
 31
-0.0000000000001643
210
-0.0000000000000001
220
0.8175471248425397
230
0.5758617009853122
  0
SPLINE
  5
51C3
330
18
100
AcDbEntity
  8
1：主線
100
AcDbSpline
210
-0.0000000000002538
220
-0.0000000000001087
230
1.0
 70
     8
 71
     3
 72
    15
 73
    11
 74
     0
 42
0.000000001
 43
0.0000000001
 40
-0.7180274131147674
 40
-0.7180274131147674
 40
-0.7180274131147674
 40
-0.7180274131147674
 40
-0.3772869405759742
 40
-0.3772869405759742
 40
0.0
 40
0.0
 40
0.0
 40
0.377286940575974
 40
0.377286940575974
 40
0.5626501436487962
 40
0.5626501436487962
 40
0.5626501436487962
 40
0.5626501436487962
 10
1606.798593649797
 20
384.399679107416
 30
0.0000000000001768
 10
1606.552773165033
 20
384.9192827831538
 30
-0.0000000000005622
 10
1606.346632249678
 20
385.4927697790995
 30
-0.0000000000005906
 10
1606.05056202882
 20
386.6760636362096
 30
-0.0000000000001643
 10
1605.97543017387
 20
387.2831194724998
 30
-0.0000000000003916
 10
1605.975430173868
 20
387.7972025616796
 30
0.0000000000002052
 10
1605.975430173868
 20
388.3112856508615
 30
0.0000000000003757
 10
1606.05056202882
 20
388.7998773384884
 30
-0.0000000000002495
 10
1606.282564246638
 20
389.3742444277
 30
-0.0000000000000506
 10
1606.378422084879
 20
389.5388965339048
 30
0.0000000000006884
 10
1606.489525943936
 20
389.6766132047319
 30
-0.0000000000001358
  0
LINE
  5
51C4
330
18
100
AcDbEntity
  8
1：主線
100
AcDbLine
 10
1664.118993143969
 20
463.2122285533331
 30
0.0000000000002621
 11
1664.118993143969
 21
442.77355043227
 31
0.0000000000000347
210
-0.0000000000000001
220
0.8175471248425397
230
0.5758617009853122
  0
SPLINE
  5
51C5
330
18
100
AcDbEntity
  8
1：主線
100
AcDbSpline
210
0.0000000000010923
220
0.0000000000003806
230
1.0
 70
     8
 71
     3
 72
    14
 73
    10
 74
     0
 42
0.000000001
 43
0.0000000001
 40
-1.65969738286359
 40
-1.65969738286359
 40
-1.65969738286359
 40
-1.65969738286359
 40
-1.427945396385414
 40
-1.427945396385414
 40
-0.9519635975902767
 40
-0.9519635975902767
 40
-0.4759817987951395
 40
-0.4759817987951395
 40
0.0
 40
0.0
 40
0.0
 40
0.0
 10
1662.808044148099
 20
468.1402422947103
 30
0.00000000000012
 10
1662.931151834116
 20
468.0245777473254
 30
-0.0000000000000222
 10
1663.046558564934
 20
467.8919156102559
 30
-0.0000000000004485
 10
1663.372338201057
 20
467.4332549830618
 30
-0.000000000000079
 10
1663.554893958855
 20
467.0507515927643
 30
-0.0000000000000222
 10
1663.842786814159
 20
466.1494276066736
 30
0.00000000000012
 10
1663.948536339456
 20
465.6296641028951
 30
-0.0000000000007895
 10
1664.086625105396
 20
464.4854068329932
 30
-0.0000000000003632
 10
1664.118993143969
 20
463.8607911384696
 30
0.0000000000004894
 10
1664.118993143967
 20
463.2122285533328
 30
0.0000000000006884
  0
SPLINE
  5
51C6
330
18
100
AcDbEntity
  8
1：主線
100
AcDbSpline
210
0.0000000000000234
220
-0.0000000000000127
230
1.0
 70
     8
 71
     3
 72
    30
 73
    26
 74
     0
 42
0.000000001
 43
0.0000000001
 40
0.0
 40
0.0
 40
0.0
 40
0.0
 40
0.4759817987951391
 40
0.4759817987951391
 40
0.9519635975902779
 40
0.9519635975902779
 40
1.427945396385416
 40
1.427945396385416
 40
1.903927195180555
 40
1.903927195180555
 40
2.379563410227772
 40
2.379563410227772
 40
2.85519962527499
 40
2.85519962527499
 40
3.330835840322206
 40
3.330835840322206
 40
3.806472055369423
 40
3.806472055369423
 40
4.282108270416641
 40
4.282108270416641
 40
4.757744485463858
 40
4.757744485463858
 40
5.233380700511075
 40
5.233380700511075
 40
5.558673805580327
 40
5.558673805580327
 40
5.558673805580327
 40
5.558673805580327
 10
1664.118993143969
 20
442.77355043227
 30
0.0000000000000063
 10
1664.118993143966
 20
442.1249878471327
 30
0.0000000000002052
 10
1664.086625105396
 20
441.4126713625618
 30
-0.0000000000002211
 10
1663.948536339456
 20
439.9060022202774
 30
0.0000000000000631
 10
1663.842786814157
 20
439.1117219627281
 30
0.0000000000002621
 10
1663.554893958853
 20
437.4995359761751
 30
-0.0000000000007043
 10
1663.372338201054
 20
436.6803358583974
 30
0.0000000000002621
 10
1662.93413620918
 20
435.0777709025601
 30
-0.0000000000001927
 10
1662.678217822351
 20
434.2944869344108
 30
0.0000000000002621
 10
1662.110749818413
 20
432.8238533509301
 30
0.0000000000000631
 10
1661.779430139439
 20
432.084516242241
 30
-0.000000000000079
 10
1661.022651396812
 20
430.666579469494
 30
-0.0000000000003348
 10
1660.597008169912
 20
429.9880234888051
 30
0.0000000000003473
 10
1659.6659936705
 20
428.7483480882701
 30
0.0000000000000347
 10
1659.15967166037
 20
428.1862529989697
 30
-0.0000000000001927
 10
1658.095643948835
 20
427.2168937808242
 30
0.0000000000001768
 10
1657.537870085536
 20
426.8097253393906
 30
-0.0000000000003348
 10
1656.41678477541
 20
426.1641352457518
 30
0.0000000000000915
 10
1655.818514603892
 20
425.9055822028826
 30
0.0000000000001484
 10
1654.589591003514
 20
425.5545185782707
 30
0.0000000000004042
 10
1653.958972521701
 20
425.4618931819623
 30
-0.0000000000001074
 10
1652.715185271505
 20
425.4491835476619
 30
-0.0000000000001643
 10
1652.10104431404
 20
425.5289676392862
 30
-0.0000000000004201
 10
1651.121813702364
 20
425.7919820546202
 30
-0.0000000000001358
 10
1650.73944344281
 20
425.9345198169681
 30
0.0000000000000631
 10
1650.379142533806
 20
426.1056771637313
 30
0.0000000000009158
  0
SPLINE
  5
51C7
330
18
100
AcDbEntity
  8
1：主線
100
AcDbSpline
210
0.0000000000113395
220
-0.0000000000097909
230
1.0
 70
     8
 71
     3
 72
    12
 73
     8
 74
     0
 42
0.000000001
 43
0.0000000001
 40
1.023100285602358
 40
1.023100285602358
 40
1.023100285602358
 40
1.023100285602358
 40
1.123253579462375
 40
1.123253579462375
 40
1.233967793027988
 40
1.233967793027988
 40
1.331233556374038
 40
1.331233556374038
 40
1.331233556374038
 40
1.331233556374038
 10
1611.475095978479
 20
381.2336864291107
 30
0.000000000000461
 10
1611.434047844857
 20
381.2459378733752
 30
0.0000000000000063
 10
1611.413491817124
 20
381.2754044699041
 30
0.0000000000001768
 10
1611.424394975984
 20
381.3639623539275
 30
0.0000000000001484
 10
1611.46276111923
 20
381.4306051991607
 30
0.0000000000005179
 10
1611.604716612513
 20
381.5708561751153
 30
0.0000000000007452
 10
1611.699851526086
 20
381.6421176922113
 30
0.00000000000066
 10
1611.810456272358
 20
381.7094099371015
 30
0.0000000000009442
  0
SPLINE
  5
51C8
330
18
100
AcDbEntity
  8
1：主線
100
AcDbSpline
210
-0.0000000000005162
220
0.0000000000001321
230
1.0
 70
     8
 71
     3
 72
    24
 73
    20
 74
     0
 42
0.000000001
 43
0.0000000001
 40
0.0707436526937742
 40
0.0707436526937742
 40
0.0707436526937742
 40
0.0707436526937742
 40
0.1131906865163388
 40
0.1131906865163388
 40
0.1697850429751548
 40
0.1697850429751548
 40
0.2263793994339708
 40
0.2263793994339708
 40
0.2829737558927868
 40
0.2829737558927868
 40
0.3395681123516028
 40
0.3395681123516028
 40
0.3961634556097722
 40
0.3961634556097722
 40
0.4527587988679417
 40
0.4527587988679417
 40
0.509354142126111
 40
0.509354142126111
 40
0.5631280721297438
 40
0.5631280721297438
 40
0.5631280721297438
 40
0.5631280721297438
 10
1612.115521758809
 20
382.6711787401287
 30
0.0000000000004894
 10
1612.043906472987
 20
382.6549866149239
 30
-0.0000000000001643
 10
1611.969814806409
 20
382.6443346837932
 30
0.0000000000001484
 10
1611.805213367483
 20
382.6341847212834
 30
-0.0000000000000506
 10
1611.704848364483
 20
382.6388289117127
 30
-0.0000000000001074
 10
1611.52006164538
 20
382.6741803473415
 30
-0.0000000000001074
 10
1611.435637132656
 20
382.7050172686463
 30
0.0000000000002621
 10
1611.302242955225
 20
382.7818338665629
 30
-0.0000000000001074
 10
1611.24451846892
 20
382.8328551096338
 30
-0.0000000000004201
 10
1611.168038985466
 20
382.9479568738189
 30
-0.0000000000007043
 10
1611.14927012983
 20
383.0119173098678
 30
-0.0000000000005337
 10
1611.14927012983
 20
383.1318455385444
 30
0.0000000000000631
 10
1611.168039274864
 20
383.1958359514642
 30
-0.0000000000005906
 10
1611.244518017756
 20
383.3110068321193
 30
-0.0000000000001927
 10
1611.302241792271
 20
383.3620588241224
 30
-0.0000000000003916
 10
1611.43563829561
 20
383.4388767614401
 30
-0.0000000000001358
 10
1611.520062679207
 20
383.4696824495604
 30
-0.000000000000079
 10
1611.700241733306
 20
383.504083957348
 30
-0.0000000000005622
 10
1611.795223033063
 20
383.5091401526133
 30
0.0000000000003189
 10
1611.885157639481
 20
383.5045708803164
 30
-0.0000000000002211
  0
LINE
  5
51C9
330
18
100
AcDbEntity
  8
2：副線
100
AcDbLine
 10
1611.885157639481
 20
382.6391911087953
 30
-0.0000000000001358
 11
1611.885157639481
 21
383.5045708803169
 31
-0.0000000000001927
210
-0.0000000000000001
220
0.8175471248425397
230
0.5758617009853122
  0
SPLINE
  5
51CA
330
18
100
AcDbEntity
  8
1：主線
100
AcDbSpline
210
0.0000000000087148
220
-0.0000000000626652
230
1.0
 70
     8
 71
     3
 72
    10
 73
     6
 74
     0
 42
0.000000001
 43
0.0000000001
 40
-0.0735350065850272
 40
-0.0735350065850272
 40
-0.0735350065850272
 40
-0.0735350065850272
 40
-0.0376368720410181
 40
-0.0376368720410181
 40
-0.0220547815860313
 40
-0.0220547815860313
 40
-0.0220547815860313
 40
-0.0220547815860313
 10
1611.885157639481
 20
383.5045708803164
 30
-0.0000000000002211
 10
1611.945165493333
 20
383.5015220848072
 30
-0.0000000000005906
 10
1612.00865094097
 20
383.5060358910946
 30
0.0000000000002336
 10
1612.092752893454
 20
383.5236178067976
 30
0.0000000000004894
 10
1612.117296671356
 20
383.5303969288789
 30
0.0000000000000631
 10
1612.140467880081
 20
383.5383271224982
 30
-0.0000000000001074
  0
SPLINE
  5
51CB
330
18
100
AcDbEntity
  8
1：主線
100
AcDbSpline
210
0.0000003243580191
220
0.0000015907865212
230
0.9999999999986821
 70
     8
 71
     3
 72
     8
 73
     4
 74
     0
 42
0.000000001
 43
0.0000000001
 40
0.2221502897586703
 40
0.2221502897586703
 40
0.2221502897586703
 40
0.2221502897586703
 40
0.2233998418580228
 40
0.2233998418580228
 40
0.2233998418580228
 40
0.2233998418580228
 10
1612.011177679578
 20
384.3466352846199
 30
-0.0000000000002211
 10
1612.00909782233
 20
384.3470685785642
 30
-0.0000000000004201
 10
1612.007020239831
 20
384.3474921955312
 30
0.0000000000002052
 10
1612.004945241602
 20
384.3479060576415
 30
-0.0000000000006474
  0
SPLINE
  5
51CC
330
18
100
AcDbEntity
  8
1：主線
100
AcDbSpline
210
0.0000000000002504
220
-0.0000000000039016
230
1.0
 70
     8
 71
     3
 72
    12
 73
     8
 74
     0
 42
0.000000001
 43
0.0000000001
 40
0.8937220467249503
 40
0.8937220467249503
 40
0.8937220467249503
 40
0.8937220467249503
 40
0.9151208046076115
 40
0.9151208046076115
 40
1.067743870696401
 40
1.067743870696401
 40
1.220366936785192
 40
1.220366936785192
 40
1.220366936785192
 40
1.220366936785192
 10
1612.004945241602
 20
384.3479060576415
 30
-0.0000000000006474
 10
1611.969443867001
 20
384.3549868703263
 30
0.0000000000001768
 10
1611.934183808593
 20
384.3615113585256
 30
0.0000000000003757
 10
1611.650254148137
 20
384.4099129498686
 30
0.0000000000006884
 10
1611.384148223264
 20
384.4277695781789
 30
0.0000000000000915
 10
1610.891545666978
 20
384.3775347853807
 30
-0.0000000000003916
 10
1610.664924575896
 20
384.3080569180706
 30
-0.000000000000278
 10
1610.48505656757
 20
384.2044778208424
 30
-0.0000000000002211
  0
LINE
  5
51CD
330
18
100
AcDbEntity
  8
1：主線
100
AcDbLine
 10
1610.485056599067
 20
384.2044777868082
 30
0.0000000000002336
 11
1609.028759595605
 21
383.3658521172542
 31
0.00000000000012
210
-0.0000000000000001
220
0.8175471248425397
230
0.5758617009853122
  0
SPLINE
  5
51CE
330
18
100
AcDbEntity
  8
1：主線
100
AcDbSpline
210
0.0000000000002195
220
0.000000000000197
230
1.0
 70
     8
 71
     3
 72
    16
 73
    12
 74
     0
 42
0.000000001
 43
0.0000000001
 40
1.344682012838991
 40
1.344682012838991
 40
1.344682012838991
 40
1.344682012838991
 40
1.455396226499985
 40
1.455396226499985
 40
1.566110440160976
 40
1.566110440160976
 40
1.708657245020383
 40
1.708657245020383
 40
1.851204049879791
 40
1.851204049879791
 40
1.897161765860549
 40
1.897161765860549
 40
1.897161765860549
 40
1.897161765860549
 10
1609.028759595605
 20
383.3658521172542
 30
0.0000000000000347
 10
1608.898281643516
 20
383.2907148618233
 30
-0.0000000000001927
 10
1608.734093362629
 20
383.2382930101571
 30
-0.0000000000003348
 10
1608.38011895302
 20
383.2057807382848
 30
0.0000000000000347
 10
1608.190486251791
 20
383.2262465092493
 30
0.0000000000004894
 10
1607.795455442218
 20
383.339826757569
 30
-0.0000000000003064
 10
1607.572215787822
 20
383.459806503543
 30
0.0000000000003189
 10
1607.188267222882
 20
383.7840604447488
 30
-0.0000000000001643
 10
1607.027410266819
 20
383.9880479785406
 30
0.0000000000007452
 10
1606.868760069947
 20
384.2592050990161
 30
0.0000000000001484
 10
1606.832396346326
 20
384.3282285715381
 30
-0.0000000000001358
 10
1606.798593649797
 20
384.399679107416
 30
0.0000000000001768
  0
LINE
  5
51CF
330
18
100
AcDbEntity
  8
1：主線
100
AcDbLine
 10
1647.39019131173
 20
432.0472410212113
 30
-0.0000000000004485
 11
1647.39019131173
 21
452.4859191422751
 31
0.0000000000002052
210
-0.0000000000000001
220
0.8175471248425397
230
0.5758617009853122
  0
SPLINE
  5
51D0
330
18
100
AcDbEntity
  8
1：主線
100
AcDbSpline
210
-0.0000000000000093
220
0.0000000000000055
230
1.0
 70
     8
 71
     3
 72
    38
 73
    34
 74
     0
 42
0.000000001
 43
0.0000000001
 40
0.0
 40
0.0
 40
0.0
 40
0.0
 40
0.4755855610246865
 40
0.4755855610246865
 40
0.9511711220493728
 40
0.9511711220493728
 40
1.426756683074059
 40
1.426756683074059
 40
1.902342244098744
 40
1.902342244098744
 40
2.377632206279998
 40
2.377632206279998
 40
2.852922168461251
 40
2.852922168461251
 40
3.328212130642504
 40
3.328212130642504
 40
3.803502092823757
 40
3.803502092823757
 40
4.278792055005009
 40
4.278792055005009
 40
4.754082017186262
 40
4.754082017186262
 40
5.229371979367516
 40
5.229371979367516
 40
5.704661941548769
 40
5.704661941548769
 40
6.180247502573455
 40
6.180247502573455
 40
6.655833063598141
 40
6.655833063598141
 40
7.131418624622826
 40
7.131418624622826
 40
7.607004185647511
 40
7.607004185647511
 40
7.607004185647511
 40
7.607004185647511
 10
1665.067860841391
 20
442.2271338660212
 30
0.0000000000001768
 10
1665.067860841391
 20
441.5791111859671
 30
0.0000000000003189
 10
1665.034646752672
 20
440.8677569934066
 30
-0.000000000000079
 10
1664.893082151218
 20
439.3637246076882
 30
0.0000000000002905
 10
1664.784708485824
 20
438.5711148992463
 30
-0.0000000000001358
 10
1664.490279908239
 20
436.9626281185945
 30
-0.0000000000002495
 10
1664.303817107298
 20
436.1454624811571
 30
-0.0000000000005906
 10
1663.8573319676
 20
434.5470171618463
 30
-0.0000000000002211
 10
1663.597047048031
 20
433.7658174898283
 30
0.000000000000461
 10
1663.021189251507
 20
432.299023366917
 30
0.0000000000001484
 10
1662.685578873192
 20
431.5616983022208
 30
0.0000000000000915
 10
1661.920893668465
 20
430.1476958176921
 30
0.0000000000000631
 10
1661.491641495075
 20
429.4710610115098
 30
-0.000000000000079
 10
1660.554798385692
 20
428.2347752331784
 30
-0.0000000000006759
 10
1660.046260845089
 20
427.6741538486652
 30
0.0000000000003189
 10
1658.979567348684
 20
426.7069672806623
 30
-0.0000000000003064
 10
1658.421345499104
 20
426.3004957093453
 30
0.0000000000002905
 10
1657.301076314809
 20
425.6553755913158
 30
0.0000000000002905
 10
1656.703857673703
 20
425.3964732362796
 30
-0.0000000000001643
 10
1655.478319127569
 20
425.0436511612114
 30
0.0000000000000915
 10
1654.850032887407
 20
424.9496192696113
 30
-0.0000000000002211
 10
1653.611876103546
 20
424.9334059097781
 30
0.0000000000001768
 10
1653.00104218542
 20
425.0110949701287
 30
-0.000000000000619
 10
1651.845110140351
 20
425.3190875382459
 30
0.0000000000002905
 10
1651.30018400729
 20
425.5493453497219
 30
0.0000000000008021
 10
1650.317567809165
 20
426.1186739871327
 30
-0.0000000000001074
 10
1649.845172556508
 20
426.4779512088948
 30
-0.0000000000004485
 10
1648.997360149409
 20
427.3310601413253
 30
-0.0000000000003916
 10
1648.622086842697
 20
427.8247434683052
 30
-0.0000000000002211
 10
1648.011613907927
 20
428.9121321248276
 30
0.0000000000005747
 10
1647.776104622941
 20
429.5067128125252
 30
0.0000000000002905
 10
1647.465313595503
 20
430.750250916339
 30
-0.0000000000002495
 10
1647.39019131173
 20
431.3992183411572
 30
-0.0000000000004201
 10
1647.39019131173
 20
432.0472410212113
 30
-0.0000000000005906
  0
LINE
  5
51D1
330
18
100
AcDbEntity
  8
2：副線
100
AcDbLine
 10
1664.118993143969
 20
442.77355043227
 30
0.0000000000000347
 11
1665.067860841391
 21
442.2271338660212
 31
0.0000000000002621
210
-0.0000000000000001
220
0.8175471248425397
230
0.5758617009853122
  0
LINE
  5
51D2
330
18
100
AcDbEntity
  8
2：副線
100
AcDbLine
 10
1664.118993143969
 20
463.2122285533331
 30
0.0000000000002621
 11
1665.067860841391
 21
462.6658119870849
 31
0.0000000000000631
210
-0.0000000000000001
220
0.8175471248425397
230
0.5758617009853122
  0
SPLINE
  5
51D3
330
18
100
AcDbEntity
  8
1：主線
100
AcDbSpline
210
-0.0000000000000159
220
0.0000000000000122
230
1.0
 70
     8
 71
     3
 72
    38
 73
    34
 74
     0
 42
0.000000001
 43
0.0000000001
 40
-7.607004185647512
 40
-7.607004185647512
 40
-7.607004185647512
 40
-7.607004185647512
 40
-7.131418624622826
 40
-7.131418624622826
 40
-6.655833063598141
 40
-6.655833063598141
 40
-6.180247502573454
 40
-6.180247502573454
 40
-5.704661941548768
 40
-5.704661941548768
 40
-5.229371979367516
 40
-5.229371979367516
 40
-4.754082017186262
 40
-4.754082017186262
 40
-4.278792055005008
 40
-4.278792055005008
 40
-3.803502092823757
 40
-3.803502092823757
 40
-3.328212130642504
 40
-3.328212130642504
 40
-2.852922168461251
 40
-2.852922168461251
 40
-2.377632206279996
 40
-2.377632206279996
 40
-1.902342244098744
 40
-1.902342244098744
 40
-1.42675668307406
 40
-1.42675668307406
 40
-0.9511711220493735
 40
-0.9511711220493735
 40
-0.475585561024687
 40
-0.475585561024687
 40
0.0
 40
0.0
 40
0.0
 40
0.0
 10
1647.39019131173
 20
452.4859191422747
 30
0.00000000000012
 10
1647.39019131173
 20
453.1339418223288
 30
-0.000000000000079
 10
1647.465313595501
 20
453.8211626904021
 30
-0.0000000000003348
 10
1647.776104622941
 20
455.2277440585998
 30
0.0000000000000631
 10
1648.011613907929
 20
455.9471412328888
 30
-0.0000000000001643
 10
1648.622086842697
 20
457.3736301724252
 30
0.00000000000012
 10
1648.997360149409
 20
458.0820670708443
 30
0.000000000000461
 10
1649.845172556506
 20
459.4494033872996
 30
-0.0000000000001927
 10
1650.317567809163
 20
460.1084568421082
 30
0.0000000000003757
 10
1651.30018400729
 20
461.3410143799828
 30
0.0000000000003189
 10
1651.84511014035
 20
461.9578025181098
 30
0.0000000000000063
 10
1653.00104218542
 20
463.1465009316525
 30
0.0000000000000915
 10
1653.611876103546
 20
463.718569765444
 30
-0.0000000000004485
 10
1654.850032887407
 20
464.7813405386599
 30
0.0000000000002052
 10
1655.478319127567
 20
465.2730032333547
 30
0.0000000000003189
 10
1656.703857673703
 20
466.1487170208268
 30
-0.0000000000004485
 10
1657.301076314809
 20
466.5327318334433
 30
0.0000000000003189
 10
1658.421345499104
 20
467.1778519514723
 30
0.0000000000003189
 10
1658.979567348684
 20
467.4592110652102
 30
-0.0000000000005906
 10
1660.046260845087
 20
467.9035059208081
 30
0.00000000000012
 10
1660.554798385694
 20
468.066496502227
 30
-0.0000000000002495
 10
1661.491641495075
 20
468.2562248671755
 30
-0.0000000000002211
 10
1661.920893668465
 20
468.2831017792168
 30
0.000000000000461
 10
1662.685578873192
 20
468.2004132820838
 30
0.0000000000002621
 10
1663.021189251507
 20
468.0906923971778
 30
-0.0000000000003064
 10
1663.597047048031
 20
467.7556003448044
 30
0.0000000000009442
 10
1663.8573319676
 20
467.5184693402516
 30
0.0000000000000631
 10
1664.303817107298
 20
466.8964694106756
 30
0.0000000000005179
 10
1664.490279908239
 20
466.5115148227141
 30
0.0000000000000915
 10
1664.784708485826
 20
465.6061240073071
 30
-0.0000000000004485
 10
1664.893082151218
 20
465.0847558537624
 30
0.0000000000000631
 10
1665.034646752672
 20
463.9386687674691
 30
-0.0000000000001358
 10
1665.067860841391
 20
463.313834667138
 30
0.0000000000006884
 10
1665.067860841391
 20
462.6658119870843
 30
0.0000000000004042
  0
LINE
  5
51D4
330
18
100
AcDbEntity
  8
1：主線
100
AcDbLine
 10
1665.067860841391
 20
462.6658119870849
 30
0.0000000000000631
 11
1665.067860841391
 21
442.2271338660212
 31
0.0000000000002621
210
-0.0000000000000001
220
0.8175471248425397
230
0.5758617009853122
  0
SPLINE
  5
51D5
330
18
100
AcDbEntity
  8
1：主線
100
AcDbSpline
210
0.0000000000000544
220
0.0000000000000456
230
1.0
 70
     9
 71
     3
 72
    38
 73
    34
 74
     0
 42
0.000000001
 43
0.0000000001
 40
0.0
 40
0.0
 40
0.0
 40
0.0
 40
0.377244205563716
 40
0.377244205563716
 40
0.7544884111274323
 40
0.7544884111274323
 40
1.131727215958038
 40
1.131727215958038
 40
1.508966020788645
 40
1.508966020788645
 40
1.886204825619254
 40
1.886204825619254
 40
2.26344363044986
 40
2.26344363044986
 40
2.640687836013578
 40
2.640687836013578
 40
3.017932041577293
 40
3.017932041577293
 40
3.395176247141009
 40
3.395176247141009
 40
3.772420452704723
 40
3.772420452704723
 40
4.149659257535331
 40
4.149659257535331
 40
4.52689806236594
 40
4.52689806236594
 40
4.904136867196545
 40
4.904136867196545
 40
5.281375672027153
 40
5.281375672027153
 40
5.65861987759087
 40
5.65861987759087
 40
6.035864083154587
 40
6.035864083154587
 40
6.035864083154587
 40
6.035864083154587
 10
1605.082042231661
 20
387.28273466164
 30
0.0000000000005179
 10
1605.082042231663
 20
387.7967595210106
 30
0.0000000000000915
 10
1605.157663575899
 20
388.2856313073093
 30
0.0000000000008305
 10
1605.47060413257
 20
389.0569887334073
 30
0.0000000000003189
 10
1605.708603507919
 20
389.3399648719615
 30
-0.0000000000005337
 10
1606.272050580693
 20
389.6672311988264
 30
-0.0000000000001358
 10
1606.635363276666
 20
389.7335157745838
 30
-0.000000000000079
 10
1607.458555976172
 20
389.6219070895859
 30
-0.000000000000278
 10
1607.91915602886
 20
389.4443317397509
 30
-0.0000000000003632
 10
1608.808316418934
 20
388.9322983250736
 30
0.0000000000005747
 10
1609.295318221364
 20
388.5641860587657
 30
0.00000000000012
 10
1610.213936338561
 20
387.6727526040627
 30
-0.0000000000000222
 10
1610.644933443105
 20
387.1490554354682
 30
-0.0000000000002495
 10
1611.335729623619
 20
386.0995184553162
 30
-0.0000000000003348
 10
1611.641717405848
 20
385.5032809468853
 30
0.0000000000001484
 10
1612.050780498506
 20
384.316149271167
 30
0.0000000000004042
 10
1612.153110043528
 20
383.7248023830884
 30
-0.000000000000619
 10
1612.153110043528
 20
382.6967526643475
 30
0.0000000000002621
 10
1612.050780498506
 20
382.1925006481152
 30
0.0000000000001484
 10
1611.641717405848
 20
381.3657899349392
 30
0.0000000000007452
 10
1611.335729623621
 20
381.0436618767527
 30
0.0000000000000631
 10
1610.644933443105
 20
380.6430600760868
 30
-0.0000000000001358
 10
1610.213936338561
 20
380.5377986416774
 30
0.0000000000003473
 10
1609.295318221364
 20
380.5944554833286
 30
0.000000000000461
 10
1608.808316418936
 20
380.7568270766478
 30
0.0000000000004894
 10
1607.91915602886
 20
381.2688604913256
 30
0.0000000000004326
 10
1607.458555976172
 20
381.6521765141488
 30
0.0000000000000631
 10
1606.635363276666
 20
382.5985618121986
 30
0.0000000000002905
 10
1606.272050580693
 20
383.1612358394447
 30
-0.0000000000000222
 10
1605.708603507919
 20
384.2841082933983
 30
0.0000000000002905
 10
1605.47060413257
 20
384.9194977214611
 30
0.0000000000000347
 10
1605.157663575899
 20
386.161982684258
 30
0.0000000000001484
 10
1605.082042231663
 20
386.7687098022697
 30
0.0000000000009726
 10
1605.082042231661
 20
387.28273466164
 30
0.0000000000005179
  0
LINE
  5
51D7
330
18
100
AcDbEntity
  8
1：主線
100
AcDbLine
 10
1660.25339668107
 20
429.5330456975583
 30
0.0000000000005463
 11
1660.25339668107
 21
467.9566604904817
 31
0.0000000000005463
210
-0.0000000000000001
220
0.8175471248425397
230
0.5758617009853122
  0
LINE
  5
51D8
330
18
100
AcDbEntity
  8
1：主線
100
AcDbLine
 10
1598.112473565423
 20
378.9137512698699
 30
0.0000000000006031
 11
1598.112473565425
 21
842.586720199506
 31
0.000000000000668
210
-0.0000000000000001
220
0.8175471248425397
230
0.5758617009853122
  0
LINE
  5
51DA
330
18
100
AcDbEntity
  8
1：主線
100
AcDbLine
 10
1668.112473565423
 20
378.9137512698694
 30
0.0000000000000063
 11
1668.112473565423
 21
842.5875572377615
 31
0.0000000000002976
210
-0.0000000000000001
220
0.8175471248425397
230
0.5758617009853122
  0
SPLINE
  5
51DB
330
18
100
AcDbEntity
  8
1：主線
100
AcDbSpline
210
-0.000000000000003
220
-0.0000000000000313
230
1.0
 70
     8
 71
     3
 72
    22
 73
    18
 74
     0
 42
0.000000001
 43
0.0000000001
 40
1.066476672622453
 40
1.066476672622453
 40
1.066476672622453
 40
1.066476672622453
 40
1.334465798028664
 40
1.334465798028664
 40
1.662008270834889
 40
1.662008270834889
 40
2.018162406850578
 40
2.018162406850578
 40
2.371167913906818
 40
2.371167913906818
 40
2.721405499628445
 40
2.721405499628445
 40
3.074822806928767
 40
3.074822806928767
 40
3.430554105854538
 40
3.430554105854538
 40
3.645912307761912
 40
3.645912307761912
 40
3.645912307761912
 40
3.645912307761912
 10
1655.720629049956
 20
911.5702419280065
 30
-0.000000000000349
 10
1654.951849623263
 20
913.1035855957433
 30
0.0000000000002621
 10
1653.888474597712
 20
914.4567608384587
 30
-0.0000000000002637
 10
1651.122250190927
 20
917.0603936142327
 30
-0.0000000000002353
 10
1649.326408373119
 20
918.2317227571498
 30
0.0000000000000205
 10
1645.204948594113
 20
920.2073293367439
 30
0.0000000000001484
 10
1642.84144632927
 20
920.9695942237628
 30
0.0000000000003189
 10
1637.911088892393
 20
921.967643298332
 30
-0.0000000000000364
 10
1635.34655798658
 20
922.2061650165562
 30
0.0000000000000489
 10
1630.246371452012
 20
922.1621847528737
 30
0.0000000000005179
 10
1627.711879178536
 20
921.8838282313576
 30
0.0000000000001057
 10
1622.854664795201
 20
920.8143243895179
 30
-0.0000000000011164
 10
1620.53420671746
 20
920.0205191486862
 30
0.0000000000004752
 10
1616.319213171693
 20
917.8975366484459
 30
-0.0000000000002495
 10
1614.420048107076
 20
916.5657312470854
 30
0.000000000000191
 10
1611.931112816841
 20
913.9197594159156
 30
0.00000000000012
 10
1611.121617235902
 20
912.8024491479433
 30
-0.0000000000004343
 10
1610.503819947506
 20
911.5702419280074
 30
-0.0000000000004769
  0
SPLINE
  5
51DC
330
18
100
AcDbEntity
  8
1：主線
100
AcDbSpline
210
0.0000000000000564
220
-0.0000000000000093
230
1.0
 70
     8
 71
     3
 72
    16
 73
    12
 74
     0
 42
0.000000001
 43
0.0000000001
 40
3.645912307768718
 40
3.645912307768718
 40
3.645912307768718
 40
3.645912307768718
 40
3.697628106970594
 40
3.697628106970594
 40
3.74934390617247
 40
3.74934390617247
 40
3.801059705374346
 40
3.801059705374346
 40
3.852775504576221
 40
3.852775504576221
 40
3.904491303778096
 40
3.904491303778096
 40
3.904491303778096
 40
3.904491303778096
 10
1610.503819947469
 20
911.5702419279147
 30
-0.0000000000001358
 10
1609.080748526818
 20
908.7319017279911
 30
-0.0000000000003774
 10
1607.708390383439
 20
905.7187145565027
 30
-0.0000000000004698
 10
1605.132084590017
 20
899.3642022303989
 30
0.0000000000002052
 10
1603.928343757343
 20
896.0228198940646
 30
-0.0000000000004556
 10
1601.755732010468
 20
889.0543060553124
 30
0.0000000000005108
 10
1600.787101549238
 20
885.4272106019852
 30
0.0000000000001342
 10
1599.143520969905
 20
877.9511665369723
 30
-0.0000000000002993
 10
1598.468800118626
 20
874.1023658653235
 30
0.0000000000002336
 10
1597.456963584762
 20
866.2656039366812
 30
-0.0000000000002993
 10
1597.120011911171
 20
862.2778923506817
 30
-0.0000000000004343
 10
1596.96332758823
 20
858.2683267225293
 30
0.0000000000004823
  0
SPLINE
  5
51DD
330
18
100
AcDbEntity
  8
1：主線
100
AcDbSpline
210
-0.000000000000018
220
-0.0000000000000097
230
1.0
 70
     8
 71
     3
 72
    16
 73
    12
 74
     0
 42
0.000000001
 43
0.0000000001
 40
7.091082983785853
 40
7.091082983785853
 40
7.091082983785853
 40
7.091082983785853
 40
7.14279878298773
 40
7.14279878298773
 40
7.194514582189606
 40
7.194514582189606
 40
7.246230381391482
 40
7.246230381391482
 40
7.297946180593356
 40
7.297946180593356
 40
7.349661979795232
 40
7.349661979795232
 40
7.349661979795232
 40
7.349661979795232
 10
1669.26112140923
 20
858.2683267225281
 30
0.0000000000001057
 10
1669.104437086287
 20
862.27789235068
 30
0.0000000000000986
 10
1668.767485412696
 20
866.2656039366789
 30
-0.000000000000349
 10
1667.755648878836
 20
874.1023658653206
 30
0.0000000000002194
 10
1667.080928027553
 20
877.9511665369708
 30
-0.0000000000002993
 10
1665.437347448222
 20
885.4272106019839
 30
-0.0000000000001287
 10
1664.468716986994
 20
889.0543060553106
 30
0.000000000000731
 10
1662.296105240119
 20
896.0228198940628
 30
0.0000000000004184
 10
1661.092364407443
 20
899.364202230398
 30
0.0000000000001839
 10
1658.516058614022
 20
905.7187145565007
 30
-0.0000000000002993
 10
1657.143700470642
 20
908.7319017279892
 30
0.0000000000005036
 10
1655.720629049993
 20
911.5702419279138
 30
0.0000000000001484
  0
SPLINE
  5
51DE
330
18
100
AcDbEntity
  8
1：主線
100
AcDbSpline
210
-0.0000000000000056
220
-0.0000000000000075
230
1.0
 70
     8
 71
     3
 72
    28
 73
    24
 74
     0
 42
0.000000001
 43
0.0000000001
 40
3.904491303769225
 40
3.904491303769225
 40
3.904491303769225
 40
3.904491303769225
 40
4.159740088247858
 40
4.159740088247858
 40
4.43592326687062
 40
4.43592326687062
 40
4.759278792884096
 40
4.759278792884096
 40
5.102923623148621
 40
5.102923623148621
 40
5.444313314620677
 40
5.444313314620677
 40
5.783237091954456
 40
5.783237091954456
 40
6.123484809801835
 40
6.123484809801835
 40
6.467238444935833
 40
6.467238444935833
 40
6.800906886511755
 40
6.800906886511755
 40
7.083041940550835
 40
7.083041940550835
 40
7.091082983794725
 40
7.091082983794725
 40
7.091082983794725
 40
7.091082983794725
 10
1596.963327588237
 20
858.2683267227144
 30
-0.0000000000003632
 10
1596.874864159035
 20
856.0045397766186
 30
0.0000000000001626
 10
1597.302757574522
 20
853.7298072688511
 30
-0.0000000000002282
 10
1599.104711904252
 20
849.3522609486548
 30
-0.0000000000001998
 10
1600.535891993466
 20
847.2777668649365
 30
-0.0000000000001501
 10
1604.386793209843
 20
843.3032981983981
 30
-0.0000000000005053
 10
1606.935895600174
 20
841.4804831868774
 30
0.0000000000000418
 10
1612.872336922412
 20
838.3683614846896
 30
0.0000000000001626
 10
1616.307831511482
 20
837.1201898964642
 30
-0.0000000000004485
 10
1623.585155868411
 20
835.3736953040922
 30
-0.0000000000004058
 10
1627.423673912397
 20
834.8724688626841
 30
0.0000000000004326
 10
1635.133780729939
 20
834.6348208980245
 30
-0.0000000000004414
 10
1639.003277873635
 20
834.8931214905544
 30
0.0000000000002621
 10
1646.450986985652
 20
836.1517457106415
 30
-0.0000000000001643
 10
1650.026855073087
 20
837.1536177963381
 30
-0.000000000000079
 10
1656.571942354017
 20
839.8769399668518
 30
0.0000000000004468
 10
1659.53764524425
 20
841.6033770565755
 30
-0.0000000000002282
 10
1664.431295111535
 20
845.7106666450332
 30
0.0000000000000276
 10
1666.396725028524
 20
848.0845210308686
 30
0.00000000000012
 10
1668.760127147099
 20
853.0469687055061
 30
0.0000000000001128
 10
1669.330846317149
 20
855.5509857498144
 30
0.0000000000006529
 10
1669.266197665212
 20
858.1256764685237
 30
0.0000000000006173
 10
1669.263908252109
 20
858.1970111677112
 30
0.0000000000004468
 10
1669.261121409221
 20
858.2683267227125
 30
-0.0000000000002424
  0
SPLINE
  5
51DF
330
18
100
AcDbEntity
  8
1：主線
100
AcDbSpline
210
0.000000000000002
220
-0.0000000000000047
230
1.0
 70
     8
 71
     3
 72
    22
 73
    18
 74
     0
 42
0.000000001
 43
0.0000000001
 40
4.286899415548323
 40
4.286899415548323
 40
4.286899415548323
 40
4.286899415548323
 40
4.606148882341271
 40
4.606148882341271
 40
4.92725336951474
 40
4.92725336951474
 40
5.248363875648283
 40
5.248363875648283
 40
5.569279929817884
 40
5.569279929817884
 40
5.89014716366365
 40
5.89014716366365
 40
6.211138160888665
 40
6.211138160888665
 40
6.532323468276581
 40
6.532323468276581
 40
6.708674872015656
 40
6.708674872015656
 40
6.708674872015656
 40
6.708674872015656
 10
1599.568822826957
 20
840.3279737113166
 30
-0.0000000000002424
 10
1600.923883867861
 20
838.2542802275196
 30
0.0000000000004681
 10
1602.852425000463
 20
836.3147251017032
 30
0.0000000000001128
 10
1607.669740524614
 20
832.878318279431
 30
0.0000000000002479
 10
1610.563668640483
 20
831.3844341028335
 30
0.0000000000000347
 10
1617.016364668294
 20
828.9998851103069
 30
0.0000000000003544
 10
1620.574129387249
 20
828.1097232711228
 30
-0.0000000000000293
 10
1627.992195375675
 20
827.0215826495828
 30
-0.0000000000007469
 10
1631.851018808291
 20
826.8234079142354
 30
-0.0000000000000932
 10
1639.481700613218
 20
827.1380990934542
 30
0.0000000000001555
 10
1643.252232633611
 20
827.6507912056302
 30
0.000000000000461
 10
1650.326536705797
 20
829.3366049822775
 30
-0.000000000000278
 10
1653.628922381722
 20
830.5096297963924
 30
-0.0000000000002993
 10
1659.43257897986
 20
833.4017934132623
 30
0.0000000000000986
 10
1661.932586969868
 20
835.1207337299026
 30
0.0000000000003331
 10
1664.98438258177
 20
838.0775624011153
 30
0.0000000000003473
 10
1665.907098947839
 20
839.1824784330761
 30
0.0000000000001626
 10
1666.6556261705
 20
840.3279737113166
 30
-0.0000000000006972
  0
LINE
  5
51E0
330
18
100
AcDbEntity
  8
1：主線
100
AcDbLine
 10
1599.568822826957
 20
840.3279737113139
 30
0.0000000000006031
 11
1598.507552991407
 21
841.9520690665068
 31
0.0000000000002479
210
-0.0000000000000001
220
0.8175471248425397
230
0.5758617009853122
  0
LINE
  5
51E1
330
18
100
AcDbEntity
  8
1：主線
100
AcDbLine
 10
1666.655626170497
 20
840.3279737113146
 30
0.0000000000002265
 11
1667.716896006051
 21
841.9520690665068
 31
0.0000000000003971
210
-0.0000000000000001
220
0.8175471248425397
230
0.5758617009853122
  0
SPLINE
  5
51E2
330
18
100
AcDbEntity
  8
1：主線
100
AcDbSpline
210
-0.0000000000004731
220
0.0000000000001736
230
1.0
 70
     8
 71
     3
 72
    16
 73
    12
 74
     0
 42
0.000000001
 43
0.0000000001
 40
0.4254895648360851
 40
0.4254895648360851
 40
0.4254895648360851
 40
0.4254895648360851
 40
0.4974712845483281
 40
0.4974712845483281
 40
0.5694530042605713
 40
0.5694530042605713
 40
0.6414347239728144
 40
0.6414347239728144
 40
0.7134164436850572
 40
0.7134164436850572
 40
0.7853981633973003
 40
0.7853981633973003
 40
0.7853981633973003
 40
0.7853981633973003
 10
1667.716896006053
 20
841.95206906651
 30
-0.0000000000002211
 10
1668.03200598992
 20
842.4342920073973
 30
-0.000000000000214
 10
1668.317227703941
 20
842.9234518464305
 30
0.0000000000004468
 10
1668.826210777668
 20
843.91314449822
 30
0.0000000000002976
 10
1669.049970914522
 20
844.4136777282306
 30
-0.0000000000000648
 10
1669.434636541598
 20
845.4234721187599
 30
-0.0000000000004058
 10
1669.595540308983
 20
845.932733079219
 30
0.000000000000255
 10
1669.853434477267
 20
846.9571873792894
 30
0.0000000000000347
 10
1669.950423073522
 20
847.4723794922464
 30
0.0000000000002407
 10
1670.079818677123
 20
848.5057701008768
 30
-0.0000000000002851
 10
1670.112224498729
 20
849.0239663462022
 30
0.0000000000000276
 10
1670.112224498731
 20
849.5421639347126
 30
-0.0000000000004272
  0
SPLINE
  5
51E3
330
18
100
AcDbEntity
  8
1：主線
100
AcDbSpline
210
0.0000000000001249
220
0.0000000000000424
230
-1.0
 70
     8
 71
     3
 72
    16
 73
    12
 74
     0
 42
0.000000001
 43
0.0000000001
 40
3.926990816987093
 40
3.926990816987093
 40
3.926990816987093
 40
3.926990816987093
 40
3.998972536699336
 40
3.998972536699336
 40
4.070954256411578
 40
4.070954256411578
 40
4.142935976123821
 40
4.142935976123821
 40
4.214917695836065
 40
4.214917695836065
 40
4.286899415548307
 40
4.286899415548307
 40
4.286899415548307
 40
4.286899415548307
 10
1596.112224498731
 20
849.5421639347126
 30
0.0000000000000276
 10
1596.112224498731
 20
849.023966346203
 30
-0.0000000000001714
 10
1596.144630320335
 20
848.5057701008759
 30
0.0000000000000347
 10
1596.274025923936
 20
847.4723794922464
 30
0.0000000000002407
 10
1596.371014520191
 20
846.9571873792897
 30
-0.0000000000004201
 10
1596.628908688475
 20
845.9327330792186
 30
0.0000000000007097
 10
1596.789812455863
 20
845.423472118761
 30
-0.0000000000011803
 10
1597.174478082935
 20
844.4136777282302
 30
0.0000000000007168
 10
1597.39823821979
 20
843.9131444982205
 30
-0.0000000000006119
 10
1597.907221293519
 20
842.923451846431
 30
0.0000000000001271
 10
1598.192443007538
 20
842.4342920073973
 30
-0.0000000000005337
 10
1598.507552991407
 20
841.95206906651
 30
0.0000000000003615
  0
LINE
  5
51E4
330
18
100
AcDbEntity
  8
1：主線
100
AcDbLine
 10
1596.112224498729
 20
849.5421639347126
 30
0.000000000000525
 11
1596.112224498729
 21
851.861896358425
 31
0.0000000000006102
210
-0.0000000000000001
220
0.8175471248425397
230
0.5758617009853122
  0
LINE
  5
51E5
330
18
100
AcDbEntity
  8
1：主線
100
AcDbLine
 10
1670.112224498731
 20
849.5421639347126
 30
0.0000000000000844
 11
1670.112224498729
 21
851.8618963584255
 31
0.0000000000001555
210
-0.0000000000000001
220
0.8175471248425397
230
0.5758617009853122
  0
SPLINE
  5
51E6
330
18
100
AcDbEntity
  8
1：主線
100
AcDbSpline
210
-0.0000000000002513
220
-0.0000000000001508
230
1.0
 70
     8
 71
     3
 72
    10
 73
     6
 74
     0
 42
0.000000001
 43
0.0000000001
 40
0.7853981633973003
 40
0.7853981633973003
 40
0.7853981633973003
 40
0.7853981633973003
 40
0.9417072868544295
 40
0.9417072868544295
 40
1.002921194113989
 40
1.002921194113989
 40
1.002921194113989
 40
1.002921194113989
 10
1670.112224498731
 20
851.8618963584255
 30
-0.0000000000003632
 10
1670.112224498731
 20
852.9871683186044
 30
-0.0000000000001003
 10
1669.959097180697
 20
854.1123791826846
 30
-0.0000000000005622
 10
1669.536358951107
 20
855.6570933012714
 30
0.0000000000010579
 10
1669.394342906808
 20
856.0894756605817
 30
-0.0000000000003703
 10
1669.22961038589
 20
856.5186817925392
 30
-0.0000000000001145
  0
SPLINE
  5
51E7
330
18
100
AcDbEntity
  8
1：主線
100
AcDbSpline
210
-0.0000000000009899
220
0.0000000000002143
230
1.0
 70
     8
 71
     3
 72
    10
 73
     6
 74
     0
 42
0.000000001
 43
0.0000000001
 40
3.709467786270375
 40
3.709467786270375
 40
3.709467786270375
 40
3.709467786270375
 40
3.770681693529961
 40
3.770681693529961
 40
3.926990816987093
 40
3.926990816987093
 40
3.926990816987093
 40
3.926990816987093
 10
1596.994838611568
 20
856.5186817925402
 30
-0.0000000000001714
 10
1596.830106090649
 20
856.0894756605822
 30
-0.0000000000006972
 10
1596.688090046351
 20
855.6570933012723
 30
0.0000000000002834
 10
1596.265351816763
 20
854.1123791826846
 30
-0.0000000000004272
 10
1596.112224498731
 20
852.9871683186048
 30
-0.0000000000005551
 10
1596.112224498731
 20
851.8618963584255
 30
0.0000000000000915
  0
ELLIPSE
  5
5395
330
18
100
AcDbEntity
  8
1：主線
100
AcDbEllipse
 10
1633.112473565423
 20
378.9137512698699
 30
0.0000000000001484
 11
35.00000000000003
 21
-0.0000000000000068
 31
0.0000000000000071
210
-0.0000000000000002
220
0.0000000000000001
230
1.0
 40
0.5758617009853119
 41
3.141592653589954
 42
6.283185307179746
  0
ELLIPSE
  5
5396
330
18
100
AcDbEntity
  8
2：副線
100
AcDbEllipse
 10
1633.112224498731
 20
910.4011755614044
 30
0.0000000000005321
 11
18.87962512784997
 21
-0.0000000000000055
 31
0.0000000000000043
210
-0.0000000000000002
220
0.0000000000000001
230
1.0
 40
0.5758617009853121
 41
-0.7853981633972516
 42
5.497787143782335
  0
ELLIPSE
  5
5397
330
18
100
AcDbEntity
  8
2：副線
100
AcDbEllipse
 10
1633.112224498731
 20
907.8112745574356
 30
0.0000000000002479
 11
23.53186978072571
 21
-0.0000000000000034
 31
0.0000000000000056
210
-0.0000000000000002
220
0.0000000000000001
230
1.0
 40
0.5758617009853121
 41
2.860514144365266
 42
6.564263816404383
  0
ELLIPSE
  5
5398
330
18
100
AcDbEntity
  8
2：副線
100
AcDbEllipse
 10
1633.112224498731
 20
857.7998805879785
 30
0.0000000000004113
 11
36.15804863445251
 21
-0.0000000000000144
 31
0.000000000000009
210
-0.0000000000000002
220
0.0
230
1.0
 40
0.5758617009853121
 41
3.119093140371052
 42
6.305684820397259
  0
ELLIPSE
  5
5399
330
18
100
AcDbEntity
  8
2：副線
100
AcDbEllipse
 10
1633.112224498731
 20
847.5966912136087
 30
-0.0000000000002353
 11
35.83968551207272
 21
-0.0000000000021341
 31
0.0000000000000057
210
0.0000000000000002
220
0.0000000000000001
230
-1.0
 40
0.5758617009853118
 41
0.3599085985603114
 42
2.781684055028382
  0
ELLIPSE
  5
539A
330
18
100
AcDbEntity
  8
2：副線
100
AcDbEllipse
 10
1633.112224498731
 20
849.4507593874145
 30
0.0000000000001342
 11
36.97360679775
 21
-0.0000000000000034
 31
0.0000000000000102
210
-0.0000000000000003
220
0.0000000000000002
230
1.0
 40
0.5758617009853121
 41
3.501501252150792
 42
5.923276708618863
  0
ELLIPSE
  5
539B
330
18
100
AcDbEntity
  8
2：副線
100
AcDbEllipse
 10
1633.112224498727
 20
849.5421639347126
 30
0.0000000000000347
 11
37.0
 21
-0.0000000000021982
 31
0.0000000000000025
210
0.0000000000000001
220
0.0000000000000001
230
-1.0
 40
0.5758617009853121
 41
-0.0000000000005349
 42
3.141592653589257
  0
ELLIPSE
  5
539C
330
18
100
AcDbEntity
  8
2：副線
100
AcDbEllipse
 10
1633.112224498731
 20
851.861896358425
 30
0.0000000000004326
 11
37.0
 21
-0.000000000000003
 31
0.0000000000000034
210
-0.0000000000000001
220
0.0000000000000002
230
1.0
 40
0.5758617009853122
 41
3.141592653589973
 42
6.283185307179768
  0
ELLIPSE
  5
539D
330
18
100
AcDbEntity
  8
2：副線
100
AcDbEllipse
 10
1633.112224498729
 20
852.0064196374036
 30
0.0000000000002123
 11
36.92677669529697
 21
-0.0000000000022056
 31
0.0000000000000081
210
0.0000000000000002
220
-0.0000000000000001
230
-1.0
 40
0.5758617009853121
 41
-0.2104609452215888
 42
3.352053598810308
  0
ELLIPSE
  5
539E
330
18
100
AcDbEntity
  8
2：副線
100
AcDbEllipse
 10
1633.112224498731
 20
852.7042397577821
 30
0.0000000000001839
 11
36.07322330470704
 21
-0.0000000000000032
 31
0.0000000000000066
210
-0.0000000000000002
220
0.0000000000000002
230
1.0
 40
0.5758617009853121
 41
3.040751277922402
 42
6.384026682846096
  0
ELLIPSE
  5
539F
330
18
100
AcDbEntity
  8
2：副線
100
AcDbEllipse
 10
1633.112224498731
 20
852.7641032600145
 30
0.0000000000002123
 11
35.8964466094101
 21
-0.0000000000021429
 31
0.0000000000000088
210
0.0000000000000002
220
-0.0000000000000001
230
-1.0
 40
0.5758617009853121
 41
-0.0756502915092437
 42
3.217242945099132
  0
ELLIPSE
  5
53A0
330
18
100
AcDbEntity
  8
2：副線
100
AcDbEllipse
 10
1633.112224498731
 20
852.7641032600145
 30
0.0000000000002123
 11
35.10355339059326
 21
-0.0000000000000058
 31
0.0000000000000078
210
-0.0000000000000002
220
0.0000000000000002
230
1.0
 40
0.5758617009853121
 41
3.181551025370218
 42
6.243226935399452
  0
ELLIPSE
  5
53A1
330
18
100
AcDbEntity
  8
2：副線
100
AcDbEllipse
 10
1633.112224498731
 20
852.8239667622464
 30
0.0000000000001555
 11
34.92677669529665
 21
-0.0000000000020867
 31
0.0000000000000145
210
0.0000000000000004
220
-0.0000000000000001
230
-1.0
 40
0.5758617009853118
 41
0.0723897193595482
 42
3.069202934229201
  0
ELLIPSE
  5
53A2
330
18
100
AcDbEntity
  8
2：副線
100
AcDbEllipse
 10
1633.112224498729
 20
853.5217868826254
 30
0.000000000000191
 11
34.07322330470338
 21
-0.0000000000000131
 31
0.0000000000000088
210
-0.0000000000000003
220
0.0000000000000002
230
1.0
 40
0.5758617009853118
 41
3.491705296825366
 42
5.933072663944324
  0
ELLIPSE
  5
53A3
330
18
100
AcDbEntity
  8
2：副線
100
AcDbEllipse
 10
1633.112224498731
 20
853.581650384857
 30
0.0000000000004184
 11
33.89644660940673
 21
-0.0000000000020208
 31
0.0000000000000069
210
0.0000000000000002
220
-0.0000000000000001
230
-1.0
 40
0.5758617009853121
 41
0.4265232666182916
 42
2.715069386972195
  0
MTEXT
  5
70DB
330
18
100
AcDbEntity
  8
7：文字
 62
     7
 48
2.0
100
AcDbMText
 10
1763.939449654708
 20
457.7820185285705
 30
0.0
 40
15.0
 41
188.2662939976999
 46
0.0
 71
     1
 72
     5
  1
{\fMS PGothic|b0|i0|c128|p50;LP-2101A-L}
 73
     1
 44
1.0
1001
ACAD
1000
ACAD_MTEXT_COLUMN_INFO_BEGIN
1070
    75
1070
     2
1070
    79
1070
     0
1070
    76
1070
     1
1070
    78
1070
     0
1070
    48
1040
188.2662939976999
1070
    49
1040
15.0
1070
    50
1070
     1
1040
0.0
1000
ACAD_MTEXT_COLUMN_INFO_END
  0
ENDSEC
  0
SECTION
  2
OBJECTS
  0
DICTIONARY
  5
C
330
0
100
AcDbDictionary
281
     1
  3
ACAD_CIP_PREVIOUS_PRODUCT_INFO
350
28CD
  3
ACAD_COLOR
350
28AE
  3
ACAD_DETAILVIEWSTYLE
350
28C7
  3
ACAD_GROUP
350
D
  3
ACAD_LAYOUT
350
75E
  3
ACAD_MATERIAL
350
287C
  3
ACAD_MLEADERSTYLE
350
28C3
  3
ACAD_MLINESTYLE
350
1B
  3
ACAD_PLOTSETTINGS
350
75F
  3
ACAD_PLOTSTYLENAME
350
75C
  3
ACAD_SCALELIST
350
28B1
  3
ACAD_SECTIONVIEWSTYLE
350
28C5
  3
ACAD_TABLESTYLE
350
28AF
  3
ACAD_VISUALSTYLE
350
2895
  3
AcadDim
350
2413
  3
AcadDim_CRX
350
46CA
  3
ACDB_RECOMPOSE_DATA
350
70E3
  3
ACDBVARIABLEDICTIONARY
350
33
  3
CONTENTDICTIONARY
350
23
  0
DICTIONARY
  5
2AC1
330
8
100
AcDbDictionary
280
     1
281
     1
  0
DICTIONARY
  5
28D1
330
2
100
AcDbDictionary
280
     1
281
     1
  3
ACAD_LAYERSTATES
360
28D2
  0
DICTIONARY
  5
2AA5
330
E
100
AcDbDictionary
280
     1
281
     1
  3
ADSK_XREC_LAYER_RECONCILED
360
2AA6
  0
DICTIONARY
  5
2B09
330
32B
100
AcDbDictionary
280
     1
281
     1
  3
ADSK_XREC_LAYER_RECONCILED
360
2B0A
  0
DICTIONARY
  5
294B
330
294A
100
AcDbDictionary
280
     1
281
     1
  3
ADSK_XREC_LAYER_RECONCILED
360
2AA7
  0
DICTIONARY
  5
294D
330
294C
100
AcDbDictionary
280
     1
281
     1
  3
ADSK_XREC_LAYER_RECONCILED
360
2AA8
  0
DICTIONARY
  5
294F
330
294E
100
AcDbDictionary
280
     1
281
     1
  3
ADSK_XREC_LAYER_RECONCILED
360
2AA9
  0
DICTIONARY
  5
2951
330
2950
100
AcDbDictionary
280
     1
281
     1
  3
ADSK_XREC_LAYER_RECONCILED
360
2AAA
  0
DICTIONARY
  5
2953
330
2952
100
AcDbDictionary
280
     1
281
     1
  3
ADSK_XREC_LAYER_RECONCILED
360
2AAB
  0
DICTIONARY
  5
2955
330
2954
100
AcDbDictionary
280
     1
281
     1
  3
ADSK_XREC_LAYER_RECONCILED
360
2AAC
  0
DICTIONARY
  5
2957
330
2956
100
AcDbDictionary
280
     1
281
     1
  3
ADSK_XREC_LAYER_RECONCILED
360
2AAD
  0
DICTIONARY
  5
2959
330
2958
100
AcDbDictionary
280
     1
281
     1
  3
ADSK_XREC_LAYER_RECONCILED
360
2AAE
  0
DICTIONARY
  5
295B
330
295A
100
AcDbDictionary
280
     1
281
     1
  3
ADSK_XREC_LAYER_RECONCILED
360
2AAF
  0
DICTIONARY
  5
295D
330
295C
100
AcDbDictionary
280
     1
281
     1
  3
ADSK_XREC_LAYER_RECONCILED
360
2AB0
  0
DICTIONARY
  5
295F
330
295E
100
AcDbDictionary
280
     1
281
     1
  3
ADSK_XREC_LAYER_RECONCILED
360
2AB1
  0
DICTIONARY
  5
2961
330
2960
100
AcDbDictionary
280
     1
281
     1
  3
ADSK_XREC_LAYER_RECONCILED
360
2AB2
  0
DICTIONARY
  5
4AE4
330
4AE3
100
AcDbDictionary
280
     1
281
     1
  0
DICTIONARY
  5
4AE6
330
4AE5
100
AcDbDictionary
280
     1
281
     1
  0
DICTIONARY
  5
7056
330
7055
100
AcDbDictionary
280
     1
281
     1
  0
DICTIONARY
  5
7058
330
7057
100
AcDbDictionary
280
     1
281
     1
  0
DICTIONARY
  5
705A
330
7059
100
AcDbDictionary
280
     1
281
     1
  0
DICTIONARY
  5
705C
330
705B
100
AcDbDictionary
280
     1
281
     1
  0
DICTIONARY
  5
2C42
330
18
100
AcDbDictionary
280
     1
281
     1
  3
ACAD_SORTENTS
360
2C49
  0
DICTIONARY
  5
6F8D
330
280B
100
AcDbDictionary
280
     1
281
     1
  0
DICTIONARY
  5
70CF
330
705E
100
AcDbDictionary
280
     1
281
     1
  3
ACAD_SORTENTS
360
70D0
  0
XRECORD
  5
28CD
102
{ACAD_REACTORS
330
C
102
}
330
C
100
AcDbXrecord
280
     1
300
ACDLT
300
2014
300
ACDLT_F_S
  0
DICTIONARY
  5
28AE
102
{ACAD_REACTORS
330
C
102
}
330
C
100
AcDbDictionary
281
     1
  0
DICTIONARY
  5
28C7
102
{ACAD_REACTORS
330
C
102
}
330
C
100
AcDbDictionary
281
     1
  3
Imperial24
350
5947
  3
Metric50
350
28C8
  0
DICTIONARY
  5
D
102
{ACAD_REACTORS
330
C
102
}
330
C
100
AcDbDictionary
281
     1
  3
*A1
350
4BE1
  3
*A2
350
593A
  0
DICTIONARY
  5
75E
102
{ACAD_REACTORS
330
C
102
}
330
C
100
AcDbDictionary
281
     1
  3
Model
350
760
  3
ﾚｲｱｳﾄ1
350
761
  0
DICTIONARY
  5
287C
102
{ACAD_REACTORS
330
C
102
}
330
C
100
AcDbDictionary
281
     1
  3
ByBlock
350
2885
  3
ByLayer
350
287D
  3
Global
350
288D
  0
DICTIONARY
  5
28C3
102
{ACAD_REACTORS
330
C
102
}
330
C
100
AcDbDictionary
281
     1
  3
Standard
350
28C4
  0
DICTIONARY
  5
1B
102
{ACAD_REACTORS
330
C
102
}
330
C
100
AcDbDictionary
281
     1
  3
STANDARD
350
1C
  0
DICTIONARY
  5
75F
102
{ACAD_REACTORS
330
C
102
}
330
C
100
AcDbDictionary
281
     1
  0
ACDBDICTIONARYWDFLT
  5
75C
102
{ACAD_REACTORS
330
C
102
}
330
C
100
AcDbDictionary
281
     1
  3
Normal
350
75D
100
AcDbDictionaryWithDefault
340
75D
  0
DICTIONARY
  5
28B1
102
{ACAD_REACTORS
330
C
102
}
330
C
100
AcDbDictionary
281
     1
  3
A0
350
28B2
  3
A1
350
28B3
  3
A2
350
28B4
  3
A3
350
28B5
  3
A4
350
28B6
  3
A5
350
28B7
  3
A6
350
28B8
  3
A7
350
28B9
  3
A8
350
28BA
  3
A9
350
28BB
  3
B0
350
28BC
  3
B1
350
28BD
  3
B2
350
28BE
  3
B3
350
28BF
  3
B4
350
28C0
  3
B5
350
28C1
  3
B6
350
28C2
  0
DICTIONARY
  5
28C5
102
{ACAD_REACTORS
330
C
102
}
330
C
100
AcDbDictionary
281
     1
  3
Imperial24
350
5946
  3
Metric50
350
28C6
  0
DICTIONARY
  5
28AF
102
{ACAD_REACTORS
330
C
102
}
330
C
100
AcDbDictionary
281
     1
  3
Standard
350
28B0
  3
部材表
350
4D28
  0
DICTIONARY
  5
2895
102
{ACAD_REACTORS
330
C
102
}
330
C
100
AcDbDictionary
281
     1
  3
2dWireframe
350
289B
  3
Basic
350
289A
  3
Brighten
350
28A1
  3
ColorChange
350
28A5
  3
Conceptual
350
289E
  3
Dim
350
28A0
  3
EdgeColorOff
350
28AD
  3
Facepattern
350
28A4
  3
Flat
350
2896
  3
FlatWithEdges
350
2897
  3
Gouraud
350
2898
  3
GouraudWithEdges
350
2899
  3
Hidden
350
289D
  3
JitterOff
350
28AB
  3
Linepattern
350
28A3
  3
OverhangOff
350
28AC
  3
Realistic
350
289F
  3
Shaded
350
28AA
  3
Shaded with edges
350
28A9
  3
Shades of Gray
350
28A6
  3
Sketchy
350
28A7
  3
Thicken
350
28A2
  3
Wireframe
350
289C
  3
X-Ray
350
28A8
  0
XRECORD
  5
2413
102
{ACAD_REACTORS
330
C
102
}
330
C
100
AcDbXrecord
280
     1
 90
   990106
  3
OPEN
 60
     0
 61
     0
 62
     1
 63
     3
 64
     1
 65
     0
 66
     0
 67
     3
 68
     1
 69
     0
 70
     0
 71
     0
 72
     0
 40
0.0
170
     2
  0
XRECORD
  5
46CA
102
{ACAD_REACTORS
330
C
102
}
330
C
100
AcDbXrecord
280
     1
 90
   990106
  3
OPEN
 60
     0
 61
     0
 62
     4
 63
     4
 64
     1
 65
     0
 66
     1
 67
     3
 68
     0
 69
     0
 70
     0
 71
     0
 72
     0
 40
0.0
170
     0
340
4BF4
  0
XRECORD
  5
70E3
102
{ACAD_REACTORS
330
C
102
}
330
C
100
AcDbXrecord
280
     1
 90
        1
330
28B0
330
28C6
330
28C8
330
4D28
330
5946
330
5947
330
70DB
  0
DICTIONARY
  5
33
102
{ACAD_REACTORS
330
C
102
}
330
C
100
AcDbDictionary
281
     1
  3
CANNOSCALE
350
28E2
  3
CMLEADERSTYLE
350
28DE
  3
CTABLESTYLE
350
28DD
  3
CVIEWDETAILSTYLE
350
28DF
  3
CVIEWSECTIONSTYLE
350
28E0
  3
DIMADEC
350
34
  3
DIMASSOC
350
23F7
  3
INDEXCTL
350
2B02
  3
LAYEREVAL
350
28E4
  3
LAYERNOTIFY
350
28E5
  3
LIGHTINGUNITS
350
28E3
  3
MSLTSCALE
350
28E1
  3
SORTENTS
350
1383
  0
DICTIONARY
  5
23
102
{ACAD_REACTORS
330
C
102
}
330
C
100
AcDbDictionary
281
     1
  0
DICTIONARY
  5
28D2
102
{ACAD_REACTORS
330
28D1
102
}
330
28D1
100
AcDbDictionary
281
     1
  0
XRECORD
  5
2AA6
102
{ACAD_REACTORS
330
2AA5
102
}
330
2AA5
100
AcDbXrecord
280
     1
290
     1
  0
XRECORD
  5
2B0A
102
{ACAD_REACTORS
330
2B09
102
}
330
2B09
100
AcDbXrecord
280
     1
290
     1
  0
XRECORD
  5
2AA7
102
{ACAD_REACTORS
330
294B
102
}
330
294B
100
AcDbXrecord
280
     1
290
     1
  0
XRECORD
  5
2AA8
102
{ACAD_REACTORS
330
294D
102
}
330
294D
100
AcDbXrecord
280
     1
290
     1
  0
XRECORD
  5
2AA9
102
{ACAD_REACTORS
330
294F
102
}
330
294F
100
AcDbXrecord
280
     1
290
     1
  0
XRECORD
  5
2AAA
102
{ACAD_REACTORS
330
2951
102
}
330
2951
100
AcDbXrecord
280
     1
290
     1
  0
XRECORD
  5
2AAB
102
{ACAD_REACTORS
330
2953
102
}
330
2953
100
AcDbXrecord
280
     1
290
     1
  0
XRECORD
  5
2AAC
102
{ACAD_REACTORS
330
2955
102
}
330
2955
100
AcDbXrecord
280
     1
290
     1
  0
XRECORD
  5
2AAD
102
{ACAD_REACTORS
330
2957
102
}
330
2957
100
AcDbXrecord
280
     1
290
     1
  0
XRECORD
  5
2AAE
102
{ACAD_REACTORS
330
2959
102
}
330
2959
100
AcDbXrecord
280
     1
290
     1
  0
XRECORD
  5
2AAF
102
{ACAD_REACTORS
330
295B
102
}
330
295B
100
AcDbXrecord
280
     1
290
     1
  0
XRECORD
  5
2AB0
102
{ACAD_REACTORS
330
295D
102
}
330
295D
100
AcDbXrecord
280
     1
290
     1
  0
XRECORD
  5
2AB1
102
{ACAD_REACTORS
330
295F
102
}
330
295F
100
AcDbXrecord
280
     1
290
     1
  0
XRECORD
  5
2AB2
102
{ACAD_REACTORS
330
2961
102
}
330
2961
100
AcDbXrecord
280
     1
290
     1
  0
SORTENTSTABLE
  5
2C49
102
{ACAD_REACTORS
330
2C42
102
}
330
2C42
100
AcDbSortentsTable
330
18
331
539F
  5
490B
331
51BC
  5
53E1
331
539B
  5
4907
331
5397
  5
4903
331
51E7
  5
5406
331
51E3
  5
5402
331
51DF
  5
53FE
331
51DB
  5
53FA
331
51D7
  5
53F6
331
51D3
  5
53F2
331
51CF
  5
53F0
331
51CB
  5
53EC
331
51C7
  5
53E9
331
53A2
  5
490E
331
51C3
  5
53E5
331
51BF
  5
53E4
331
539E
  5
490A
331
51BB
  5
53E0
331
539A
  5
4906
331
5396
  5
4902
331
51E6
  5
5405
331
51E2
  5
5401
331
51DE
  5
53FD
331
51DA
  5
53F9
331
51D2
  5
40C1
331
51CE
  5
53EF
331
51CA
  5
53EB
331
51C6
  5
53E8
331
51C2
  5
40BE
331
53A1
  5
490D
331
51BE
  5
53E3
331
539D
  5
4909
331
51BA
  5
53DF
331
5399
  5
4905
331
5395
  5
54D4
331
51E5
  5
5404
331
51E1
  5
5400
331
51DD
  5
53FC
331
51D5
  5
53F4
331
51D1
  5
40C0
331
51CD
  5
53EE
331
51C9
  5
40BF
331
51C5
  5
53E7
331
51C1
  5
40BD
331
53A0
  5
490C
331
51BD
  5
53E2
331
539C
  5
4908
331
5398
  5
4904
331
51E4
  5
5403
331
51E0
  5
53FF
331
51DC
  5
53FB
331
51D8
  5
53F7
331
51D4
  5
53F3
331
51D0
  5
53F1
331
51CC
  5
53ED
331
51C8
  5
53EA
331
53A3
  5
490F
331
51C4
  5
53E6
331
51C0
  5
40BC
  0
SORTENTSTABLE
  5
70D0
102
{ACAD_REACTORS
330
70CF
102
}
330
70CF
100
AcDbSortentsTable
330
705E
  0
ACDBDETAILVIEWSTYLE
  5
5947
102
{ACAD_XDICTIONARY
360
7023
102
}
102
{ACAD_REACTORS
330
28C7
102
}
330
28C7
100
AcDbModelDocViewStyle
 70
     0
  3
Imperial24
290
     0
100
AcDbDetailViewStyle
 70
     0
 71
     0
 90
        3
 71
     1
340
F
 62
   256
 40
0.24
340
0
 62
   256
 40
0.24
300

 40
0.36
280
     3
 71
     2
340
14
 90
       25
 62
   256
 71
     3
340
F
 62
   256
 40
0.24
 90
        1
 40
0.75
 90
        1
300
%<\AcVar ViewType \f "%tc1">% %<\AcVar ViewDetailId>%\PSCALE %<\AcVar ViewScale \f "%sn">%
 71
     4
340
14
 90
       25
 62
   256
340
14
 90
       25
 62
   256
280
     0
  0
ACDBDETAILVIEWSTYLE
  5
28C8
102
{ACAD_XDICTIONARY
360
7019
102
}
102
{ACAD_REACTORS
330
28C7
102
}
330
28C7
100
AcDbModelDocViewStyle
 70
     0
  3
Metric50
290
     0
100
AcDbDetailViewStyle
 70
     0
 71
     0
 90
        3
 71
     1
340
F
 62
   256
 40
5.0
340
0
 62
   256
 40
5.0
300

 40
0.0
280
     1
 71
     2
340
14
 90
       25
 62
   256
 71
     3
340
F
 62
   256
 40
5.0
 90
        0
 40
15.0
 90
        1
300
%<\AcVar ViewDetailId>% (%<\AcVar ViewScale \f "%sn">%)
 71
     4
340
14
 90
       25
 62
   256
340
14
 90
       25
 62
   256
280
     0
  0
GROUP
  5
4BE1
102
{ACAD_REACTORS
330
D
102
}
330
D
100
AcDbGroup
300

 70
     1
 71
     1
  0
GROUP
  5
593A
102
{ACAD_REACTORS
330
D
102
}
330
D
100
AcDbGroup
300

 70
     1
 71
     1
  0
LAYOUT
  5
760
102
{ACAD_XDICTIONARY
360
2AC4
102
}
102
{ACAD_REACTORS
330
75E
102
}
330
75E
100
AcDbPlotSettings
  1

  2
KONICA MINOLTA C554Series②
  4
A3
  6

 40
5.027082920074462
 41
5.027069091796875
 42
5.027099609375
 43
5.027069091796875
 44
296.9259948730469
 45
419.9466552734373
 46
0.8115548174518494
 47
0.8500317330536404
 48
-1351.36508001101
 49
570.4799978608429
140
-943.1850800110099
141
855.7199978608428
142
1.0
143
8.0
 70
 11940
 72
     1
 73
     1
 74
     1
  7
TAGAI1.CTB
 75
     0
147
0.1267184610770047
 76
     0
 77
     2
 78
   300
148
0.0497916847180022
149
0.0347948947755867
100
AcDbLayout
  1
Model
 70
     1
 71
     0
 10
0.0
 20
0.0
 11
12.0
 21
9.0
 12
0.0
 22
0.0
 32
0.0
 14
0.0
 24
0.0
 34
0.0
 15
0.0
 25
0.0
 35
0.0
146
0.0
 13
0.0
 23
0.0
 33
0.0
 16
1.0
 26
0.0
 36
0.0
 17
0.0
 27
1.0
 37
0.0
 76
     0
330
18
331
287A
1001
ACAD_PSEXT
1000
KONICA MINOLTA C554Series②
1000
KONICA MINOLTA C554SeriesPCL
1000
IP_192.168.4.222
1000

1070
     0
  0
LAYOUT
  5
761
102
{ACAD_REACTORS
330
75E
102
}
330
75E
100
AcDbPlotSettings
  1

  2
Canon LASER SHOT LBP-850
  4

  6

 40
0.0
 41
0.0
 42
0.0
 43
0.0
 44
0.0
 45
0.0
 46
0.0
 47
0.0
 48
0.0
 49
0.0
140
0.0
141
0.0
142
1.0
143
1.0
 70
   688
 72
     0
 73
     0
 74
     5
  7
tagai1.ctb
 75
    16
147
1.0
 76
     0
 77
     2
 78
   300
148
0.0
149
0.0
100
AcDbLayout
  1
ﾚｲｱｳﾄ1
 70
     1
 71
     1
 10
0.0
 20
0.0
 11
420.0
 21
297.0
 12
0.0
 22
0.0
 32
0.0
 14
1.000000000000000E+20
 24
1.000000000000000E+20
 34
1.000000000000000E+20
 15
-1.000000000000000E+20
 25
-1.000000000000000E+20
 35
-1.000000000000000E+20
146
0.0
 13
0.0
 23
0.0
 33
0.0
 16
1.0
 26
0.0
 36
0.0
 17
0.0
 27
1.0
 37
0.0
 76
     0
330
15
  0
MATERIAL
  5
2885
102
{ACAD_XDICTIONARY
360
2886
102
}
102
{ACAD_REACTORS
330
287C
102
}
330
287C
100
AcDbMaterial
  1
ByBlock
 72
     0
 43
0.0208333333333333
 43
0.0
 43
0.0
 43
0.0
 43
0.0
 43
0.0208333333333333
 43
0.0
 43
0.0
 43
0.0
 43
0.0
 43
1.0
 43
0.0
 43
0.0
 43
0.0
 43
0.0
 43
1.0
 77
     0
 47
0.0208333333333333
 47
0.0
 47
0.0
 47
0.0
 47
0.0
 47
0.0208333333333333
 47
0.0
 47
0.0
 47
0.0
 47
0.0
 47
1.0
 47
0.0
 47
0.0
 47
0.0
 47
0.0
 47
1.0
171
     0
 49
0.0208333333333333
 49
0.0
 49
0.0
 49
0.0
 49
0.0
 49
0.0208333333333333
 49
0.0
 49
0.0
 49
0.0
 49
0.0
 49
1.0
 49
0.0
 49
0.0
 49
0.0
 49
0.0
 49
1.0
175
     0
142
0.0208333333333333
142
0.0
142
0.0
142
0.0
142
0.0
142
0.0208333333333333
142
0.0
142
0.0
142
0.0
142
0.0
142
1.0
142
0.0
142
0.0
142
0.0
142
0.0
142
1.0
179
     0
144
0.0208333333333333
144
0.0
144
0.0
144
0.0
144
0.0
144
0.0208333333333333
144
0.0
144
0.0
144
0.0
144
0.0
144
1.0
144
0.0
144
0.0
144
0.0
144
0.0
144
1.0
147
0.0208333333333333
147
0.0
147
0.0
147
0.0
147
0.0
147
0.0208333333333333
147
0.0
147
0.0
147
0.0
147
0.0
147
1.0
147
0.0
147
0.0
147
0.0
147
0.0
147
1.0
  0
MATERIAL
  5
287D
102
{ACAD_XDICTIONARY
360
287E
102
}
102
{ACAD_REACTORS
330
287C
102
}
330
287C
100
AcDbMaterial
  1
ByLayer
 72
     0
 43
0.0208333333333333
 43
0.0
 43
0.0
 43
0.0
 43
0.0
 43
0.0208333333333333
 43
0.0
 43
0.0
 43
0.0
 43
0.0
 43
1.0
 43
0.0
 43
0.0
 43
0.0
 43
0.0
 43
1.0
 77
     0
 47
0.0208333333333333
 47
0.0
 47
0.0
 47
0.0
 47
0.0
 47
0.0208333333333333
 47
0.0
 47
0.0
 47
0.0
 47
0.0
 47
1.0
 47
0.0
 47
0.0
 47
0.0
 47
0.0
 47
1.0
171
     0
 49
0.0208333333333333
 49
0.0
 49
0.0
 49
0.0
 49
0.0
 49
0.0208333333333333
 49
0.0
 49
0.0
 49
0.0
 49
0.0
 49
1.0
 49
0.0
 49
0.0
 49
0.0
 49
0.0
 49
1.0
175
     0
142
0.0208333333333333
142
0.0
142
0.0
142
0.0
142
0.0
142
0.0208333333333333
142
0.0
142
0.0
142
0.0
142
0.0
142
1.0
142
0.0
142
0.0
142
0.0
142
0.0
142
1.0
179
     0
144
0.0208333333333333
144
0.0
144
0.0
144
0.0
144
0.0
144
0.0208333333333333
144
0.0
144
0.0
144
0.0
144
0.0
144
1.0
144
0.0
144
0.0
144
0.0
144
0.0
144
1.0
147
0.0208333333333333
147
0.0
147
0.0
147
0.0
147
0.0
147
0.0208333333333333
147
0.0
147
0.0
147
0.0
147
0.0
147
1.0
147
0.0
147
0.0
147
0.0
147
0.0
147
1.0
  0
MATERIAL
  5
288D
102
{ACAD_XDICTIONARY
360
288E
102
}
102
{ACAD_REACTORS
330
287C
102
}
330
287C
100
AcDbMaterial
  1
Global
 72
     0
 43
0.0208333333333333
 43
0.0
 43
0.0
 43
0.0
 43
0.0
 43
0.0208333333333333
 43
0.0
 43
0.0
 43
0.0
 43
0.0
 43
1.0
 43
0.0
 43
0.0
 43
0.0
 43
0.0
 43
1.0
 77
     0
 47
0.0208333333333333
 47
0.0
 47
0.0
 47
0.0
 47
0.0
 47
0.0208333333333333
 47
0.0
 47
0.0
 47
0.0
 47
0.0
 47
1.0
 47
0.0
 47
0.0
 47
0.0
 47
0.0
 47
1.0
171
     0
 49
0.0208333333333333
 49
0.0
 49
0.0
 49
0.0
 49
0.0
 49
0.0208333333333333
 49
0.0
 49
0.0
 49
0.0
 49
0.0
 49
1.0
 49
0.0
 49
0.0
 49
0.0
 49
0.0
 49
1.0
175
     0
142
0.0208333333333333
142
0.0
142
0.0
142
0.0
142
0.0
142
0.0208333333333333
142
0.0
142
0.0
142
0.0
142
0.0
142
1.0
142
0.0
142
0.0
142
0.0
142
0.0
142
1.0
179
     0
144
0.0208333333333333
144
0.0
144
0.0
144
0.0
144
0.0
144
0.0208333333333333
144
0.0
144
0.0
144
0.0
144
0.0
144
1.0
144
0.0
144
0.0
144
0.0
144
0.0
144
1.0
147
0.0208333333333333
147
0.0
147
0.0
147
0.0
147
0.0
147
0.0208333333333333
147
0.0
147
0.0
147
0.0
147
0.0
147
1.0
147
0.0
147
0.0
147
0.0
147
0.0
147
1.0
  0
MLEADERSTYLE
  5
28C4
102
{ACAD_REACTORS
330
28C3
102
}
330
28C3
100
AcDbMLeaderStyle
179
     2
170
     2
171
     1
172
     0
 90
        0
 40
0.0
 41
0.0
173
     1
 91
-1073741824
340
12
 92
       -2
290
     1
 42
1.0
291
     1
 43
0.36
  3
Standard
341
36
 44
2.5
300

342
F
174
     5
178
     5
175
     1
176
     0
 93
-1023410174
 45
6.0
292
     0
297
     0
 46
4.0
 94
-1056964608
 47
1.0
 49
1.0
140
1.0
293
     1
141
0.0
294
     1
177
     0
142
1.0
295
     0
296
     0
143
3.75
271
     0
272
     9
273
     9
298
     1
  0
MLINESTYLE
  5
1C
102
{ACAD_REACTORS
330
1B
102
}
330
1B
100
AcDbMlineStyle
  2
STANDARD
 70
     0
  3

 62
   256
 51
90.0
 52
90.0
 71
     2
 49
0.5
 62
   256
  6
BYLAYER
 49
-0.5
 62
   256
  6
BYLAYER
  0
ACDBPLACEHOLDER
  5
75D
102
{ACAD_REACTORS
330
75C
102
}
330
75C
  0
SCALE
  5
28B2
102
{ACAD_REACTORS
330
28B1
102
}
330
28B1
100
AcDbScale
 70
     0
300
1:1
140
1.0
141
1.0
290
     1
  0
SCALE
  5
28B3
102
{ACAD_REACTORS
330
28B1
102
}
330
28B1
100
AcDbScale
 70
     0
300
1:2
140
1.0
141
2.0
290
     0
  0
SCALE
  5
28B4
102
{ACAD_REACTORS
330
28B1
102
}
330
28B1
100
AcDbScale
 70
     0
300
1:4
140
1.0
141
4.0
290
     0
  0
SCALE
  5
28B5
102
{ACAD_REACTORS
330
28B1
102
}
330
28B1
100
AcDbScale
 70
     0
300
1:5
140
1.0
141
5.0
290
     0
  0
SCALE
  5
28B6
102
{ACAD_REACTORS
330
28B1
102
}
330
28B1
100
AcDbScale
 70
     0
300
1:8
140
1.0
141
8.0
290
     0
  0
SCALE
  5
28B7
102
{ACAD_REACTORS
330
28B1
102
}
330
28B1
100
AcDbScale
 70
     0
300
1:10
140
1.0
141
10.0
290
     0
  0
SCALE
  5
28B8
102
{ACAD_REACTORS
330
28B1
102
}
330
28B1
100
AcDbScale
 70
     0
300
1:16
140
1.0
141
16.0
290
     0
  0
SCALE
  5
28B9
102
{ACAD_REACTORS
330
28B1
102
}
330
28B1
100
AcDbScale
 70
     0
300
1:20
140
1.0
141
20.0
290
     0
  0
SCALE
  5
28BA
102
{ACAD_REACTORS
330
28B1
102
}
330
28B1
100
AcDbScale
 70
     0
300
1:30
140
1.0
141
30.0
290
     0
  0
SCALE
  5
28BB
102
{ACAD_REACTORS
330
28B1
102
}
330
28B1
100
AcDbScale
 70
     0
300
1:40
140
1.0
141
40.0
290
     0
  0
SCALE
  5
28BC
102
{ACAD_REACTORS
330
28B1
102
}
330
28B1
100
AcDbScale
 70
     0
300
1:50
140
1.0
141
50.0
290
     0
  0
SCALE
  5
28BD
102
{ACAD_REACTORS
330
28B1
102
}
330
28B1
100
AcDbScale
 70
     0
300
1:100
140
1.0
141
100.0
290
     0
  0
SCALE
  5
28BE
102
{ACAD_REACTORS
330
28B1
102
}
330
28B1
100
AcDbScale
 70
     0
300
2:1
140
2.0
141
1.0
290
     0
  0
SCALE
  5
28BF
102
{ACAD_REACTORS
330
28B1
102
}
330
28B1
100
AcDbScale
 70
     0
300
4:1
140
4.0
141
1.0
290
     0
  0
SCALE
  5
28C0
102
{ACAD_REACTORS
330
28B1
102
}
330
28B1
100
AcDbScale
 70
     0
300
8:1
140
8.0
141
1.0
290
     0
  0
SCALE
  5
28C1
102
{ACAD_REACTORS
330
28B1
102
}
330
28B1
100
AcDbScale
 70
     0
300
10:1
140
10.0
141
1.0
290
     0
  0
SCALE
  5
28C2
102
{ACAD_REACTORS
330
28B1
102
}
330
28B1
100
AcDbScale
 70
     0
300
100:1
140
100.0
141
1.0
290
     0
  0
ACDBSECTIONVIEWSTYLE
  5
5946
102
{ACAD_XDICTIONARY
360
7021
102
}
102
{ACAD_REACTORS
330
28C5
102
}
330
28C5
100
AcDbModelDocViewStyle
 70
     0
  3
Imperial24
290
     0
100
AcDbSectionViewStyle
 70
     0
 71
     0
 90
       78
 71
     1
340
F
 62
   256
 40
0.24
340
0
340
0
 62
   256
 40
0.24
300
I, O, Q, S, X, Z
 40
0.48
 90
        3
 40
0.18
 90
        1
 71
     2
340
14
 90
       25
 62
   256
340
14
 90
       50
 62
   256
 40
0.24
 40
0.0
 40
0.24
 71
     3
340
F
 62
   256
 40
0.24
 90
        1
 40
0.75
 90
        1
300
%<\AcVar ViewType \f "%tc1">% %<\AcVar ViewSectionStartId>%-%<\AcVar ViewSectionEndId>%\PSCALE %<\AcVar ViewScale \f "%sn">%
 71
     4
 62
   256
 62
   257
300
ANSI31
 40
1.0
 90
        0
290
     0
290
     0
 90
        6
 40
0.0
 40
1.570796326794896
 40
0.2617993877991494
 40
1.308996938995747
 40
-0.2617993877991494
 40
1.832595714594045
  0
ACDBSECTIONVIEWSTYLE
  5
28C6
102
{ACAD_XDICTIONARY
360
7017
102
}
102
{ACAD_REACTORS
330
28C5
102
}
330
28C5
100
AcDbModelDocViewStyle
 70
     0
  3
Metric50
290
     0
100
AcDbSectionViewStyle
 70
     0
 71
     0
 90
      102
 71
     1
340
F
 62
   256
 40
5.0
340
0
340
0
 62
   256
 40
5.0
300
I, O, Q, S, X, Z
 40
10.0
 90
        0
 40
2.5
 90
        0
 71
     2
340
14
 90
       25
 62
   256
340
14
 90
       50
 62
   256
 40
5.0
 40
2.5
 40
5.0
 71
     3
340
F
 62
   256
 40
5.0
 90
        0
 40
15.0
 90
        1
300
%<\AcVar ViewSectionStartId>%-%<\AcVar ViewSectionEndId>% (%<\AcVar ViewScale \f "%sn">%)
 71
     4
 62
   256
 62
   257
300
ANSI31
 40
1.0
 90
        0
290
     0
290
     0
 90
        6
 40
0.0
 40
1.570796326794896
 40
0.2617993877991494
 40
1.308996938995747
 40
-0.2617993877991494
 40
1.832595714594045
  0
TABLESTYLE
  5
28B0
102
{ACAD_XDICTIONARY
360
2AB3
102
}
102
{ACAD_REACTORS
330
28AF
102
}
330
28AF
100
AcDbTableStyle
280
     0
  3
Standard
 70
     0
 71
     0
 40
1.5
 41
1.5
280
     0
281
     0
  7
STANDARD
140
4.5
170
     2
 62
     0
 63
     7
283
     0
 90
      512
 91
        0
  1

274
    -2
284
     1
 64
     0
275
    -2
285
     1
 65
     0
276
    -2
286
     1
 66
     0
277
    -2
287
     1
 67
     0
278
    -2
288
     1
 68
     0
279
    -2
289
     1
 69
     0
  7
STANDARD
140
6.0
170
     5
 62
     0
 63
     7
283
     0
 90
      512
 91
        0
  1

274
    -2
284
     1
 64
     0
275
    -2
285
     1
 65
     0
276
    -2
286
     1
 66
     0
277
    -2
287
     1
 67
     0
278
    -2
288
     1
 68
     0
279
    -2
289
     1
 69
     0
  7
STANDARD
140
4.5
170
     5
 62
     0
 63
     7
283
     0
 90
      512
 91
        0
  1

274
    -2
284
     1
 64
     0
275
    -2
285
     1
 65
     0
276
    -2
286
     1
 66
     0
277
    -2
287
     1
 67
     0
278
    -2
288
     1
 68
     0
279
    -2
289
     1
 69
     0
  0
TABLESTYLE
  5
4D28
102
{ACAD_XDICTIONARY
360
4D29
102
}
102
{ACAD_REACTORS
330
28AF
102
}
330
28AF
100
AcDbTableStyle
280
     0
  3
Standard
 70
     0
 71
     0
 40
0.5
 41
0.5
280
     0
281
     0
  7
STANDARD
140
4.5
170
     5
 62
     7
 63
     7
283
     0
 90
        4
 91
        0
  1

274
    -2
284
     1
 64
     0
275
    -2
285
     1
 65
     0
276
    -2
286
     1
 66
     0
277
    -2
287
     1
 67
     0
278
    -2
288
     1
 68
     0
279
    -2
289
     1
 69
     0
  7
STANDARD
140
6.0
170
     5
 62
     0
 63
     7
283
     0
 90
      512
 91
        0
  1

274
    -2
284
     1
 64
     0
275
    -2
285
     1
 65
     0
276
    -2
286
     1
 66
     0
277
    -2
287
     1
 67
     0
278
    -2
288
     1
 68
     0
279
    -2
289
     1
 69
     0
  7
STANDARD
140
4.5
170
     5
 62
     0
 63
     7
283
     0
 90
      512
 91
        0
  1

274
    -2
284
     1
 64
     0
275
    -2
285
     1
 65
     0
276
    -2
286
     1
 66
     0
277
    -2
287
     1
 67
     0
278
    -2
288
     1
 68
     0
279
    -2
289
     1
 69
     0
  0
VISUALSTYLE
  5
289B
102
{ACAD_REACTORS
330
2895
102
}
330
2895
100
AcDbVisualStyle
  2
2dWireframe
 70
     4
177
     3
291
     0
 70
    58
 90
        0
176
     1
 90
        2
176
     1
 90
        0
176
     1
 90
        0
176
     1
 40
0.6
176
     1
 40
30.0
176
     1
 62
     7
176
     1
 90
        1
176
     1
 90
        4
176
     1
 62
     7
176
     1
 62
   257
176
     1
 90
        1
176
     1
 90
        1
176
     1
 40
1.0
176
     1
 90
        0
176
     1
 62
   257
176
     1
 40
1.0
176
     1
 90
        1
176
     1
 90
        6
176
     1
 90
        2
176
     1
 62
     7
176
     1
 90
        5
176
     1
 90
        0
176
     1
 90
        0
176
     1
290
     0
176
     1
 90
        1
176
     1
 40
0.0
176
     1
 90
        0
176
     1
290
     1
176
     1
290
     1
176
     1
290
     0
176
     1
290
     0
176
     1
290
     0
176
     1
290
     0
176
     1
290
     0
176
     1
290
     0
176
     1
290
     0
176
     1
 90
       50
176
     1
 40
0.0
176
     1
 40
1.0
176
     1
 90
        0
176
     1
 62
    18
176
     1
 90
       50
176
     1
 90
        3
176
     1
 62
     5
420
      255
176
     1
290
     0
176
     1
 90
       50
176
     1
 90
       50
176
     1
 90
       50
176
     1
290
     0
176
     1
 90
       50
176
     1
 62
   256
176
     0
 40
1.0
176
     0
 90
        2
176
     1
  1
strokes_ogs.tif
176
     1
290
     0
176
     1
 40
1.0
176
     1
 40
1.0
176
     1
  0
VISUALSTYLE
  5
289A
102
{ACAD_REACTORS
330
2895
102
}
330
2895
100
AcDbVisualStyle
  2
Basic
 70
     7
177
     3
291
     1
 70
    58
 90
        1
176
     1
 90
        0
176
     1
 90
        1
176
     1
 90
        0
176
     1
 40
0.6
176
     1
 40
30.0
176
     1
 62
     7
176
     1
 90
        0
176
     1
 90
        4
176
     1
 62
     7
176
     1
 62
   257
176
     1
 90
        1
176
     1
 90
        1
176
     1
 40
1.0
176
     1
 90
        8
176
     1
 62
     7
176
     1
 40
1.0
176
     1
 90
        1
176
     1
 90
        6
176
     1
 90
        2
176
     1
 62
     7
176
     1
 90
        5
176
     1
 90
        0
176
     1
 90
        0
176
     1
290
     0
176
     1
 90
        1
176
     1
 40
0.0
176
     1
 90
        0
176
     1
290
     0
176
     1
290
     1
176
     1
290
     1
176
     1
290
     0
176
     1
290
     0
176
     1
290
     0
176
     1
290
     0
176
     1
290
     0
176
     1
290
     0
176
     1
 90
       50
176
     1
 40
0.0
176
     1
 40
1.0
176
     1
 90
        0
176
     1
 62
    18
176
     1
 90
       50
176
     1
 90
        3
176
     1
 62
     5
420
      255
176
     1
290
     0
176
     1
 90
       50
176
     1
 90
       50
176
     1
 90
       50
176
     1
290
     0
176
     1
 90
       50
176
     1
 62
   256
176
     0
 40
1.0
176
     0
 90
        2
176
     1
  1
strokes_ogs.tif
176
     1
290
     0
176
     1
 40
1.0
176
     1
 40
1.0
176
     1
  0
VISUALSTYLE
  5
28A1
102
{ACAD_REACTORS
330
2895
102
}
330
2895
100
AcDbVisualStyle
  2
Brighten
 70
    12
177
     3
291
     1
 70
    58
 90
        2
176
     1
 90
        2
176
     1
 90
        0
176
     1
 90
        0
176
     1
 40
0.6
176
     1
 40
30.0
176
     1
 62
     7
176
     1
 90
        1
176
     1
 90
        4
176
     1
 62
     7
176
     1
 62
   257
176
     1
 90
        1
176
     1
 90
        1
176
     1
 40
1.0
176
     1
 90
        8
176
     1
 62
     7
176
     1
 40
1.0
176
     1
 90
        1
176
     1
 90
        6
176
     1
 90
        2
176
     1
 62
     7
176
     1
 90
        5
176
     1
 90
        0
176
     1
 90
        0
176
     1
290
     0
176
     1
 90
        1
176
     1
 40
50.0
176
     1
 90
        0
176
     1
290
     0
176
     1
290
     1
176
     1
290
     1
176
     1
290
     0
176
     1
290
     0
176
     1
290
     0
176
     1
290
     0
176
     1
290
     0
176
     1
290
     0
176
     1
 90
       50
176
     1
 40
0.0
176
     1
 40
1.0
176
     1
 90
        0
176
     1
 62
    18
176
     1
 90
       50
176
     1
 90
        3
176
     1
 62
     5
420
      255
176
     1
290
     0
176
     1
 90
       50
176
     1
 90
       50
176
     1
 90
       50
176
     1
290
     0
176
     1
 90
       50
176
     1
 62
   256
176
     0
 40
1.0
176
     0
 90
        2
176
     1
  1
strokes_ogs.tif
176
     1
290
     0
176
     1
 40
1.0
176
     1
 40
1.0
176
     1
  0
VISUALSTYLE
  5
28A5
102
{ACAD_REACTORS
330
2895
102
}
330
2895
100
AcDbVisualStyle
  2
ColorChange
 70
    16
177
     3
291
     1
 70
    58
 90
        2
176
     1
 90
        2
176
     1
 90
        3
176
     1
 90
        0
176
     1
 40
0.6
176
     1
 40
30.0
176
     1
 62
     8
176
     1
 90
        1
176
     1
 90
        4
176
     1
 62
     7
176
     1
 62
   257
176
     1
 90
        1
176
     1
 90
        1
176
     1
 40
1.0
176
     1
 90
        8
176
     1
 62
     8
176
     1
 40
1.0
176
     1
 90
        1
176
     1
 90
        6
176
     1
 90
        2
176
     1
 62
     7
176
     1
 90
        5
176
     1
 90
        0
176
     1
 90
        0
176
     1
290
     0
176
     1
 90
        1
176
     1
 40
0.0
176
     1
 90
        0
176
     1
290
     0
176
     1
290
     1
176
     1
290
     1
176
     1
290
     0
176
     1
290
     0
176
     1
290
     0
176
     1
290
     0
176
     1
290
     0
176
     1
290
     0
176
     1
 90
       50
176
     1
 40
0.0
176
     1
 40
1.0
176
     1
 90
        0
176
     1
 62
    18
176
     1
 90
       50
176
     1
 90
        3
176
     1
 62
     5
420
      255
176
     1
290
     0
176
     1
 90
       50
176
     1
 90
       50
176
     1
 90
       50
176
     1
290
     0
176
     1
 90
       50
176
     1
 62
   256
176
     0
 40
1.0
176
     0
 90
        2
176
     1
  1
strokes_ogs.tif
176
     1
290
     0
176
     1
 40
1.0
176
     1
 40
1.0
176
     1
  0
VISUALSTYLE
  5
289E
102
{ACAD_REACTORS
330
2895
102
}
330
2895
100
AcDbVisualStyle
  2
Conceptual
 70
     9
177
     3
291
     0
 70
    58
 90
        3
176
     1
 90
        2
176
     1
 90
        0
176
     1
 90
        0
176
     1
 40
0.6
176
     1
 40
30.0
176
     1
 62
     7
176
     1
 90
        2
176
     1
 90
        2
176
     1
 62
     7
176
     1
 62
   257
176
     1
 90
        1
176
     1
 90
        1
176
     1
 40
179.0
176
     1
 90
        8
176
     1
 62
     7
176
     1
 40
1.0
176
     1
 90
        1
176
     1
 90
        6
176
     1
 90
        2
176
     1
 62
     7
176
     1
 90
        3
176
     1
 90
        0
176
     1
 90
        0
176
     1
290
     0
176
     1
 90
        1
176
     1
 40
0.0
176
     1
 90
        0
176
     1
290
     0
176
     1
290
     1
176
     1
290
     1
176
     1
290
     0
176
     1
290
     0
176
     1
290
     0
176
     1
290
     0
176
     1
290
     0
176
     1
290
     0
176
     1
 90
       50
176
     1
 40
0.0
176
     1
 40
1.0
176
     1
 90
        0
176
     1
 62
    18
176
     1
 90
       50
176
     1
 90
        3
176
     1
 62
     5
420
      255
176
     1
290
     0
176
     1
 90
       50
176
     1
 90
       50
176
     1
 90
       50
176
     1
290
     0
176
     1
 90
       50
176
     1
 62
   256
176
     0
 40
1.0
176
     0
 90
        2
176
     1
  1
strokes_ogs.tif
176
     1
290
     0
176
     1
 40
1.0
176
     1
 40
1.0
176
     1
  0
VISUALSTYLE
  5
28A0
102
{ACAD_REACTORS
330
2895
102
}
330
2895
100
AcDbVisualStyle
  2
Dim
 70
    11
177
     3
291
     1
 70
    58
 90
        2
176
     1
 90
        2
176
     1
 90
        0
176
     1
 90
        0
176
     1
 40
0.6
176
     1
 40
30.0
176
     1
 62
     7
176
     1
 90
        1
176
     1
 90
        4
176
     1
 62
     7
176
     1
 62
   257
176
     1
 90
        1
176
     1
 90
        1
176
     1
 40
1.0
176
     1
 90
        8
176
     1
 62
     7
176
     1
 40
1.0
176
     1
 90
        1
176
     1
 90
        6
176
     1
 90
        2
176
     1
 62
     7
176
     1
 90
        5
176
     1
 90
        0
176
     1
 90
        0
176
     1
290
     0
176
     1
 90
        1
176
     1
 40
-50.0
176
     1
 90
        0
176
     1
290
     0
176
     1
290
     1
176
     1
290
     1
176
     1
290
     0
176
     1
290
     0
176
     1
290
     0
176
     1
290
     0
176
     1
290
     0
176
     1
290
     0
176
     1
 90
       50
176
     1
 40
0.0
176
     1
 40
1.0
176
     1
 90
        0
176
     1
 62
    18
176
     1
 90
       50
176
     1
 90
        3
176
     1
 62
     5
420
      255
176
     1
290
     0
176
     1
 90
       50
176
     1
 90
       50
176
     1
 90
       50
176
     1
290
     0
176
     1
 90
       50
176
     1
 62
   256
176
     0
 40
1.0
176
     0
 90
        2
176
     1
  1
strokes_ogs.tif
176
     1
290
     0
176
     1
 40
1.0
176
     1
 40
1.0
176
     1
  0
VISUALSTYLE
  5
28AD
102
{ACAD_REACTORS
330
2895
102
}
330
2895
100
AcDbVisualStyle
  2
EdgeColorOff
 70
    22
177
     3
291
     1
 70
    58
 90
        2
176
     0
 90
        2
176
     0
 90
        0
176
     0
 90
        0
176
     0
 40
0.6
176
     0
 40
30.0
176
     0
 62
     7
176
     0
 90
        1
176
     0
 90
        4
176
     0
 62
     7
176
     0
 62
   257
176
     0
 90
        1
176
     0
 90
        1
176
     0
 40
1.0
176
     0
 90
        8
176
     2
 62
     7
176
     0
 40
1.0
176
     0
 90
        1
176
     0
 90
        6
176
     0
 90
        2
176
     0
 62
     7
176
     0
 90
        5
176
     0
 90
        0
176
     0
 90
        0
176
     0
290
     0
176
     0
 90
        1
176
     0
 40
0.0
176
     0
 90
        0
176
     0
290
     0
176
     0
290
     1
176
     0
290
     1
176
     0
290
     0
176
     0
290
     0
176
     0
290
     0
176
     0
290
     0
176
     0
290
     0
176
     0
290
     0
176
     0
 90
       50
176
     0
 40
0.0
176
     0
 40
1.0
176
     0
 90
        0
176
     0
 62
    18
176
     0
 90
       50
176
     0
 90
        3
176
     0
 62
     5
420
      255
176
     0
290
     0
176
     0
 90
       50
176
     0
 90
       50
176
     0
 90
       50
176
     0
290
     0
176
     0
 90
       50
176
     0
 62
   256
176
     0
 40
1.0
176
     0
 90
        2
176
     0
  1
strokes_ogs.tif
176
     0
290
     0
176
     0
 40
1.0
176
     0
 40
1.0
176
     0
  0
VISUALSTYLE
  5
28A4
102
{ACAD_REACTORS
330
2895
102
}
330
2895
100
AcDbVisualStyle
  2
Facepattern
 70
    15
177
     3
291
     1
 70
    58
 90
        2
176
     1
 90
        2
176
     1
 90
        0
176
     1
 90
        0
176
     1
 40
0.6
176
     1
 40
30.0
176
     1
 62
     7
176
     1
 90
        1
176
     1
 90
        4
176
     1
 62
     7
176
     1
 62
   257
176
     1
 90
        1
176
     1
 90
        1
176
     1
 40
1.0
176
     1
 90
        8
176
     1
 62
     7
176
     1
 40
1.0
176
     1
 90
        1
176
     1
 90
        6
176
     1
 90
        2
176
     1
 62
     7
176
     1
 90
        5
176
     1
 90
        0
176
     1
 90
        0
176
     1
290
     0
176
     1
 90
        1
176
     1
 40
0.0
176
     1
 90
        0
176
     1
290
     0
176
     1
290
     1
176
     1
290
     1
176
     1
290
     0
176
     1
290
     0
176
     1
290
     0
176
     1
290
     0
176
     1
290
     0
176
     1
290
     0
176
     1
 90
       50
176
     1
 40
0.0
176
     1
 40
1.0
176
     1
 90
        0
176
     1
 62
    18
176
     1
 90
       50
176
     1
 90
        3
176
     1
 62
     5
420
      255
176
     1
290
     0
176
     1
 90
       50
176
     1
 90
       50
176
     1
 90
       50
176
     1
290
     0
176
     1
 90
       50
176
     1
 62
   256
176
     0
 40
1.0
176
     0
 90
        2
176
     1
  1
strokes_ogs.tif
176
     1
290
     0
176
     1
 40
1.0
176
     1
 40
1.0
176
     1
  0
VISUALSTYLE
  5
2896
102
{ACAD_REACTORS
330
2895
102
}
330
2895
100
AcDbVisualStyle
  2
Flat
 70
     0
177
     3
291
     1
 70
    58
 90
        2
176
     1
 90
        1
176
     1
 90
        1
176
     1
 90
        2
176
     1
 40
0.6
176
     1
 40
30.0
176
     1
 62
     7
176
     1
 90
        0
176
     1
 90
        0
176
     1
 62
     7
176
     1
 62
   257
176
     1
 90
        1
176
     1
 90
        1
176
     1
 40
1.0
176
     1
 90
        8
176
     1
 62
     7
176
     1
 40
1.0
176
     1
 90
        1
176
     1
 90
        6
176
     1
 90
        2
176
     1
 62
     7
176
     1
 90
        5
176
     1
 90
        0
176
     1
 90
        0
176
     1
290
     0
176
     1
 90
       13
176
     1
 40
0.0
176
     1
 90
        0
176
     1
290
     0
176
     1
290
     1
176
     1
290
     1
176
     1
290
     0
176
     1
290
     0
176
     1
290
     0
176
     1
290
     0
176
     1
290
     0
176
     1
290
     0
176
     1
 90
       50
176
     1
 40
0.0
176
     1
 40
1.0
176
     1
 90
        0
176
     1
 62
    18
176
     1
 90
       50
176
     1
 90
        3
176
     1
 62
     5
420
      255
176
     1
290
     0
176
     1
 90
       50
176
     1
 90
       50
176
     1
 90
       50
176
     1
290
     0
176
     1
 90
       50
176
     1
 62
   256
176
     0
 40
1.0
176
     0
 90
        2
176
     1
  1
strokes_ogs.tif
176
     1
290
     0
176
     1
 40
1.0
176
     1
 40
1.0
176
     1
  0
VISUALSTYLE
  5
2897
102
{ACAD_REACTORS
330
2895
102
}
330
2895
100
AcDbVisualStyle
  2
FlatWithEdges
 70
     1
177
     3
291
     1
 70
    58
 90
        2
176
     1
 90
        1
176
     1
 90
        1
176
     1
 90
        2
176
     1
 40
0.6
176
     1
 40
30.0
176
     1
 62
     7
176
     1
 90
        1
176
     1
 90
        0
176
     1
 62
     7
176
     1
 62
   257
176
     1
 90
        1
176
     1
 90
        1
176
     1
 40
1.0
176
     1
 90
        0
176
     1
 62
   257
176
     1
 40
1.0
176
     1
 90
        1
176
     1
 90
        6
176
     1
 90
        2
176
     1
 62
     7
176
     1
 90
        5
176
     1
 90
        0
176
     1
 90
        0
176
     1
290
     0
176
     1
 90
       13
176
     1
 40
0.0
176
     1
 90
        0
176
     1
290
     0
176
     1
290
     1
176
     1
290
     1
176
     1
290
     0
176
     1
290
     0
176
     1
290
     0
176
     1
290
     0
176
     1
290
     0
176
     1
290
     0
176
     1
 90
       50
176
     1
 40
0.0
176
     1
 40
1.0
176
     1
 90
        0
176
     1
 62
    18
176
     1
 90
       50
176
     1
 90
        3
176
     1
 62
     5
420
      255
176
     1
290
     0
176
     1
 90
       50
176
     1
 90
       50
176
     1
 90
       50
176
     1
290
     0
176
     1
 90
       50
176
     1
 62
   256
176
     0
 40
1.0
176
     0
 90
        2
176
     1
  1
strokes_ogs.tif
176
     1
290
     0
176
     1
 40
1.0
176
     1
 40
1.0
176
     1
  0
VISUALSTYLE
  5
2898
102
{ACAD_REACTORS
330
2895
102
}
330
2895
100
AcDbVisualStyle
  2
Gouraud
 70
     2
177
     3
291
     1
 70
    58
 90
        2
176
     1
 90
        2
176
     1
 90
        1
176
     1
 90
        2
176
     1
 40
0.6
176
     1
 40
30.0
176
     1
 62
     7
176
     1
 90
        0
176
     1
 90
        0
176
     1
 62
     7
176
     1
 62
   257
176
     1
 90
        1
176
     1
 90
        1
176
     1
 40
1.0
176
     1
 90
        0
176
     1
 62
     7
176
     1
 40
1.0
176
     1
 90
        1
176
     1
 90
        6
176
     1
 90
        2
176
     1
 62
     7
176
     1
 90
        5
176
     1
 90
        0
176
     1
 90
        0
176
     1
290
     0
176
     1
 90
       13
176
     1
 40
0.0
176
     1
 90
        0
176
     1
290
     0
176
     1
290
     1
176
     1
290
     1
176
     1
290
     0
176
     1
290
     0
176
     1
290
     0
176
     1
290
     0
176
     1
290
     0
176
     1
290
     0
176
     1
 90
       50
176
     1
 40
0.0
176
     1
 40
1.0
176
     1
 90
        0
176
     1
 62
    18
176
     1
 90
       50
176
     1
 90
        3
176
     1
 62
     5
420
      255
176
     1
290
     0
176
     1
 90
       50
176
     1
 90
       50
176
     1
 90
       50
176
     1
290
     0
176
     1
 90
       50
176
     1
 62
   256
176
     0
 40
1.0
176
     0
 90
        2
176
     1
  1
strokes_ogs.tif
176
     1
290
     0
176
     1
 40
1.0
176
     1
 40
1.0
176
     1
  0
VISUALSTYLE
  5
2899
102
{ACAD_REACTORS
330
2895
102
}
330
2895
100
AcDbVisualStyle
  2
GouraudWithEdges
 70
     3
177
     3
291
     1
 70
    58
 90
        2
176
     1
 90
        2
176
     1
 90
        1
176
     1
 90
        2
176
     1
 40
0.6
176
     1
 40
30.0
176
     1
 62
     7
176
     1
 90
        1
176
     1
 90
        0
176
     1
 62
     7
176
     1
 62
   257
176
     1
 90
        1
176
     1
 90
        1
176
     1
 40
1.0
176
     1
 90
        0
176
     1
 62
   257
176
     1
 40
1.0
176
     1
 90
        1
176
     1
 90
        6
176
     1
 90
        2
176
     1
 62
     7
176
     1
 90
        5
176
     1
 90
        0
176
     1
 90
        0
176
     1
290
     0
176
     1
 90
       13
176
     1
 40
0.0
176
     1
 90
        0
176
     1
290
     0
176
     1
290
     1
176
     1
290
     1
176
     1
290
     0
176
     1
290
     0
176
     1
290
     0
176
     1
290
     0
176
     1
290
     0
176
     1
290
     0
176
     1
 90
       50
176
     1
 40
0.0
176
     1
 40
1.0
176
     1
 90
        0
176
     1
 62
    18
176
     1
 90
       50
176
     1
 90
        3
176
     1
 62
     5
420
      255
176
     1
290
     0
176
     1
 90
       50
176
     1
 90
       50
176
     1
 90
       50
176
     1
290
     0
176
     1
 90
       50
176
     1
 62
   256
176
     0
 40
1.0
176
     0
 90
        2
176
     1
  1
strokes_ogs.tif
176
     1
290
     0
176
     1
 40
1.0
176
     1
 40
1.0
176
     1
  0
VISUALSTYLE
  5
289D
102
{ACAD_REACTORS
330
2895
102
}
330
2895
100
AcDbVisualStyle
  2
Hidden
 70
     6
177
     3
291
     0
 70
    58
 90
        1
176
     1
 90
        2
176
     1
 90
        2
176
     1
 90
        0
176
     1
 40
0.6
176
     1
 40
30.0
176
     1
 62
     7
176
     1
 90
        2
176
     1
 90
        2
176
     1
 62
     7
176
     1
 62
   257
176
     1
 90
        2
176
     1
 90
        1
176
     1
 40
40.0
176
     1
 90
        0
176
     1
 62
   257
176
     1
 40
1.0
176
     1
 90
        1
176
     1
 90
        6
176
     1
 90
        2
176
     1
 62
     7
176
     1
 90
        3
176
     1
 90
        0
176
     1
 90
        0
176
     1
290
     0
176
     1
 90
        1
176
     1
 40
0.0
176
     1
 90
        0
176
     1
290
     0
176
     1
290
     1
176
     1
290
     1
176
     1
290
     0
176
     1
290
     0
176
     1
290
     0
176
     1
290
     0
176
     1
290
     0
176
     1
290
     0
176
     1
 90
       50
176
     1
 40
0.0
176
     1
 40
1.0
176
     1
 90
        0
176
     1
 62
    18
176
     1
 90
       50
176
     1
 90
        3
176
     1
 62
     5
420
      255
176
     1
290
     0
176
     1
 90
       50
176
     1
 90
       50
176
     1
 90
       50
176
     1
290
     0
176
     1
 90
       50
176
     1
 62
   256
176
     0
 40
1.0
176
     0
 90
        2
176
     1
  1
strokes_ogs.tif
176
     1
290
     0
176
     1
 40
1.0
176
     1
 40
1.0
176
     1
  0
VISUALSTYLE
  5
28AB
102
{ACAD_REACTORS
330
2895
102
}
330
2895
100
AcDbVisualStyle
  2
JitterOff
 70
    20
177
     3
291
     1
 70
    58
 90
        2
176
     0
 90
        2
176
     0
 90
        0
176
     0
 90
        0
176
     0
 40
0.6
176
     0
 40
30.0
176
     0
 62
     7
176
     0
 90
        1
176
     0
 90
        4
176
     0
 62
     7
176
     0
 62
   257
176
     0
 90
        1
176
     0
 90
        1
176
     0
 40
1.0
176
     0
 90
       10
176
     2
 62
     7
176
     0
 40
1.0
176
     0
 90
        1
176
     0
 90
        6
176
     0
 90
        2
176
     0
 62
     7
176
     0
 90
        5
176
     0
 90
        0
176
     0
 90
        0
176
     0
290
     0
176
     0
 90
        1
176
     0
 40
0.0
176
     0
 90
        0
176
     0
290
     0
176
     0
290
     1
176
     0
290
     1
176
     0
290
     0
176
     0
290
     0
176
     0
290
     0
176
     0
290
     0
176
     0
290
     0
176
     0
290
     0
176
     0
 90
       50
176
     0
 40
0.0
176
     0
 40
1.0
176
     0
 90
        0
176
     0
 62
    18
176
     0
 90
       50
176
     0
 90
        3
176
     0
 62
     5
420
      255
176
     0
290
     0
176
     0
 90
       50
176
     0
 90
       50
176
     0
 90
       50
176
     0
290
     0
176
     0
 90
       50
176
     0
 62
   256
176
     0
 40
1.0
176
     0
 90
        2
176
     0
  1
strokes_ogs.tif
176
     0
290
     0
176
     0
 40
1.0
176
     0
 40
1.0
176
     0
  0
VISUALSTYLE
  5
28A3
102
{ACAD_REACTORS
330
2895
102
}
330
2895
100
AcDbVisualStyle
  2
Linepattern
 70
    14
177
     3
291
     1
 70
    58
 90
        2
176
     1
 90
        2
176
     1
 90
        0
176
     1
 90
        0
176
     1
 40
0.6
176
     1
 40
30.0
176
     1
 62
     7
176
     1
 90
        1
176
     1
 90
        4
176
     1
 62
     7
176
     1
 62
   257
176
     1
 90
        7
176
     1
 90
        7
176
     1
 40
1.0
176
     1
 90
        8
176
     1
 62
     7
176
     1
 40
1.0
176
     1
 90
        1
176
     1
 90
        6
176
     1
 90
        2
176
     1
 62
     7
176
     1
 90
        5
176
     1
 90
        0
176
     1
 90
        0
176
     1
290
     0
176
     1
 90
        1
176
     1
 40
0.0
176
     1
 90
        0
176
     1
290
     0
176
     1
290
     1
176
     1
290
     1
176
     1
290
     0
176
     1
290
     0
176
     1
290
     0
176
     1
290
     0
176
     1
290
     0
176
     1
290
     0
176
     1
 90
       50
176
     1
 40
0.0
176
     1
 40
1.0
176
     1
 90
        0
176
     1
 62
    18
176
     1
 90
       50
176
     1
 90
        3
176
     1
 62
     5
420
      255
176
     1
290
     0
176
     1
 90
       50
176
     1
 90
       50
176
     1
 90
       50
176
     1
290
     0
176
     1
 90
       50
176
     1
 62
   256
176
     0
 40
1.0
176
     0
 90
        2
176
     1
  1
strokes_ogs.tif
176
     1
290
     0
176
     1
 40
1.0
176
     1
 40
1.0
176
     1
  0
VISUALSTYLE
  5
28AC
102
{ACAD_REACTORS
330
2895
102
}
330
2895
100
AcDbVisualStyle
  2
OverhangOff
 70
    21
177
     3
291
     1
 70
    58
 90
        2
176
     0
 90
        2
176
     0
 90
        0
176
     0
 90
        0
176
     0
 40
0.6
176
     0
 40
30.0
176
     0
 62
     7
176
     0
 90
        1
176
     0
 90
        4
176
     0
 62
     7
176
     0
 62
   257
176
     0
 90
        1
176
     0
 90
        1
176
     0
 40
1.0
176
     0
 90
        9
176
     2
 62
     7
176
     0
 40
1.0
176
     0
 90
        1
176
     0
 90
        6
176
     0
 90
        2
176
     0
 62
     7
176
     0
 90
        5
176
     0
 90
        0
176
     0
 90
        0
176
     0
290
     0
176
     0
 90
        1
176
     0
 40
0.0
176
     0
 90
        0
176
     0
290
     0
176
     0
290
     1
176
     0
290
     1
176
     0
290
     0
176
     0
290
     0
176
     0
290
     0
176
     0
290
     0
176
     0
290
     0
176
     0
290
     0
176
     0
 90
       50
176
     0
 40
0.0
176
     0
 40
1.0
176
     0
 90
        0
176
     0
 62
    18
176
     0
 90
       50
176
     0
 90
        3
176
     0
 62
     5
420
      255
176
     0
290
     0
176
     0
 90
       50
176
     0
 90
       50
176
     0
 90
       50
176
     0
290
     0
176
     0
 90
       50
176
     0
 62
   256
176
     0
 40
1.0
176
     0
 90
        2
176
     0
  1
strokes_ogs.tif
176
     0
290
     0
176
     0
 40
1.0
176
     0
 40
1.0
176
     0
  0
VISUALSTYLE
  5
289F
102
{ACAD_REACTORS
330
2895
102
}
330
2895
100
AcDbVisualStyle
  2
Realistic
 70
     8
177
     3
291
     0
 70
    58
 90
        2
176
     1
 90
        2
176
     1
 90
        0
176
     1
 90
        2
176
     1
 40
0.6
176
     1
 40
30.0
176
     1
 62
     7
176
     1
 90
        0
176
     1
 90
        0
176
     1
 62
     7
176
     1
 62
   257
176
     1
 90
        1
176
     1
 90
        1
176
     1
 40
1.0
176
     1
 90
        8
176
     1
 62
   257
176
     1
 40
1.0
176
     1
 90
        1
176
     1
 90
        6
176
     1
 90
        2
176
     1
 62
     7
176
     1
 90
        3
176
     1
 90
        0
176
     1
 90
        0
176
     1
290
     0
176
     1
 90
       13
176
     1
 40
0.0
176
     1
 90
        0
176
     1
290
     0
176
     1
290
     1
176
     1
290
     1
176
     1
290
     0
176
     1
290
     0
176
     1
290
     0
176
     1
290
     0
176
     1
290
     0
176
     1
290
     0
176
     1
 90
       50
176
     1
 40
0.0
176
     1
 40
1.0
176
     1
 90
        0
176
     1
 62
    18
176
     1
 90
       50
176
     1
 90
        3
176
     1
 62
     5
420
      255
176
     1
290
     0
176
     1
 90
       50
176
     1
 90
       50
176
     1
 90
       50
176
     1
290
     0
176
     1
 90
       50
176
     1
 62
   256
176
     0
 40
1.0
176
     0
 90
        2
176
     1
  1
strokes_ogs.tif
176
     1
290
     0
176
     1
 40
1.0
176
     1
 40
1.0
176
     1
  0
VISUALSTYLE
  5
28AA
102
{ACAD_REACTORS
330
2895
102
}
330
2895
100
AcDbVisualStyle
  2
Shaded
 70
    27
177
     3
291
     0
 70
    58
 90
        2
176
     1
 90
        2
176
     1
 90
        1
176
     1
 90
        2
176
     1
 40
0.6
176
     1
 40
30.0
176
     1
 62
     7
176
     1
 90
        0
176
     1
 90
        4
176
     1
 62
     7
176
     1
 62
   257
176
     1
 90
        1
176
     1
 90
        1
176
     1
 40
1.0
176
     1
 90
        8
176
     1
 62
   257
176
     1
 40
1.0
176
     1
 90
        1
176
     1
 90
        6
176
     1
 90
        2
176
     1
 62
     8
176
     1
 90
        3
176
     1
 90
        0
176
     1
 90
        0
176
     1
290
     0
176
     1
 90
        5
176
     1
 40
0.0
176
     1
 90
        0
176
     1
290
     0
176
     1
290
     1
176
     1
290
     1
176
     1
290
     0
176
     1
290
     0
176
     1
290
     0
176
     1
290
     0
176
     1
290
     0
176
     1
290
     0
176
     1
 90
       50
176
     1
 40
0.0
176
     1
 40
1.0
176
     1
 90
        0
176
     1
 62
    18
176
     1
 90
       50
176
     1
 90
        3
176
     1
 62
     5
420
      255
176
     1
290
     0
176
     1
 90
       50
176
     1
 90
       50
176
     1
 90
       50
176
     1
290
     0
176
     1
 90
       50
176
     1
 62
   256
176
     0
 40
1.0
176
     0
 90
        2
176
     1
  1
strokes_ogs.tif
176
     1
290
     0
176
     1
 40
1.0
176
     1
 40
1.0
176
     1
  0
VISUALSTYLE
  5
28A9
102
{ACAD_REACTORS
330
2895
102
}
330
2895
100
AcDbVisualStyle
  2
Shaded with edges
 70
    26
177
     3
291
     0
 70
    58
 90
        2
176
     1
 90
        2
176
     1
 90
        1
176
     1
 90
        2
176
     1
 40
0.6
176
     1
 40
30.0
176
     1
 62
     7
176
     1
 90
        1
176
     1
 90
       10
176
     1
 62
     7
176
     1
 62
   257
176
     1
 90
        2
176
     1
 90
        1
176
     1
 40
1.0
176
     1
 90
        8
176
     1
 62
   257
176
     1
 40
1.0
176
     1
 90
        1
176
     1
 90
        6
176
     1
 90
        2
176
     1
 62
     7
176
     1
 90
        3
176
     1
 90
        0
176
     1
 90
        0
176
     1
290
     0
176
     1
 90
        5
176
     1
 40
0.0
176
     1
 90
        0
176
     1
290
     0
176
     1
290
     1
176
     1
290
     1
176
     1
290
     0
176
     1
290
     0
176
     1
290
     0
176
     1
290
     0
176
     1
290
     0
176
     1
290
     0
176
     1
 90
       50
176
     1
 40
0.0
176
     1
 40
1.0
176
     1
 90
        0
176
     1
 62
    18
176
     1
 90
       50
176
     1
 90
        3
176
     1
 62
     5
420
      255
176
     1
290
     0
176
     1
 90
       50
176
     1
 90
       50
176
     1
 90
       50
176
     1
290
     0
176
     1
 90
       50
176
     1
 62
   256
176
     0
 40
1.0
176
     0
 90
        2
176
     1
  1
strokes_ogs.tif
176
     1
290
     0
176
     1
 40
1.0
176
     1
 40
1.0
176
     1
  0
VISUALSTYLE
  5
28A6
102
{ACAD_REACTORS
330
2895
102
}
330
2895
100
AcDbVisualStyle
  2
Shades of Gray
 70
    23
177
     3
291
     0
 70
    58
 90
        2
176
     1
 90
        2
176
     1
 90
        3
176
     1
 90
        0
176
     1
 40
0.6
176
     1
 40
30.0
176
     1
 62
     7
176
     1
 90
        2
176
     1
 90
        2
176
     1
 62
     7
176
     1
 62
     7
176
     1
 90
        1
176
     1
 90
        1
176
     1
 40
40.0
176
     1
 90
        8
176
     1
 62
     7
176
     1
 40
1.0
176
     1
 90
        1
176
     1
 90
        6
176
     1
 90
        2
176
     1
 62
     7
176
     1
 90
        3
176
     1
 90
        0
176
     1
 90
        0
176
     1
290
     0
176
     1
 90
        1
176
     1
 40
0.0
176
     1
 90
        0
176
     1
290
     0
176
     1
290
     1
176
     1
290
     1
176
     1
290
     0
176
     1
290
     0
176
     1
290
     0
176
     1
290
     0
176
     1
290
     0
176
     1
290
     0
176
     1
 90
       50
176
     1
 40
0.0
176
     1
 40
1.0
176
     1
 90
        0
176
     1
 62
    18
176
     1
 90
       50
176
     1
 90
        3
176
     1
 62
     5
420
      255
176
     1
290
     0
176
     1
 90
       50
176
     1
 90
       50
176
     1
 90
       50
176
     1
290
     0
176
     1
 90
       50
176
     1
 62
   256
176
     0
 40
1.0
176
     0
 90
        2
176
     1
  1
strokes_ogs.tif
176
     1
290
     0
176
     1
 40
1.0
176
     1
 40
1.0
176
     1
  0
VISUALSTYLE
  5
28A7
102
{ACAD_REACTORS
330
2895
102
}
330
2895
100
AcDbVisualStyle
  2
Sketchy
 70
    24
177
     3
291
     0
 70
    58
 90
        1
176
     1
 90
        2
176
     1
 90
        2
176
     1
 90
        0
176
     1
 40
0.6
176
     1
 40
30.0
176
     1
 62
     7
176
     1
 90
        2
176
     1
 90
        2
176
     1
 62
     7
176
     1
 62
     7
176
     1
 90
        1
176
     1
 90
        1
176
     1
 40
40.0
176
     1
 90
       11
176
     1
 62
     7
176
     1
 40
1.0
176
     1
 90
        1
176
     1
 90
        6
176
     1
 90
        2
176
     1
 62
     7
176
     1
 90
        6
176
     1
 90
        0
176
     1
 90
        0
176
     1
290
     0
176
     1
 90
        1
176
     1
 40
0.0
176
     1
 90
        0
176
     1
290
     0
176
     1
290
     1
176
     1
290
     1
176
     1
290
     0
176
     1
290
     0
176
     1
290
     0
176
     1
290
     0
176
     1
290
     0
176
     1
290
     0
176
     1
 90
       50
176
     1
 40
0.0
176
     1
 40
1.0
176
     1
 90
        0
176
     1
 62
    18
176
     1
 90
       50
176
     1
 90
        3
176
     1
 62
     5
420
      255
176
     1
290
     0
176
     1
 90
       50
176
     1
 90
       50
176
     1
 90
       50
176
     1
290
     0
176
     1
 90
       50
176
     1
 62
   256
176
     0
 40
1.0
176
     0
 90
        2
176
     1
  1
strokes_ogs.tif
176
     1
290
     0
176
     1
 40
1.0
176
     1
 40
1.0
176
     1
  0
VISUALSTYLE
  5
28A2
102
{ACAD_REACTORS
330
2895
102
}
330
2895
100
AcDbVisualStyle
  2
Thicken
 70
    13
177
     3
291
     1
 70
    58
 90
        2
176
     1
 90
        2
176
     1
 90
        0
176
     1
 90
        0
176
     1
 40
0.6
176
     1
 40
30.0
176
     1
 62
     7
176
     1
 90
        1
176
     1
 90
        4
176
     1
 62
     7
176
     1
 62
   257
176
     1
 90
        1
176
     1
 90
        1
176
     1
 40
1.0
176
     1
 90
       12
176
     1
 62
     7
176
     1
 40
1.0
176
     1
 90
        1
176
     1
 90
        6
176
     1
 90
        2
176
     1
 62
     7
176
     1
 90
        5
176
     1
 90
        0
176
     1
 90
        0
176
     1
290
     0
176
     1
 90
        1
176
     1
 40
0.0
176
     1
 90
        0
176
     1
290
     0
176
     1
290
     1
176
     1
290
     1
176
     1
290
     0
176
     1
290
     0
176
     1
290
     0
176
     1
290
     0
176
     1
290
     0
176
     1
290
     0
176
     1
 90
       50
176
     1
 40
0.0
176
     1
 40
1.0
176
     1
 90
        0
176
     1
 62
    18
176
     1
 90
       50
176
     1
 90
        3
176
     1
 62
     5
420
      255
176
     1
290
     0
176
     1
 90
       50
176
     1
 90
       50
176
     1
 90
       50
176
     1
290
     0
176
     1
 90
       50
176
     1
 62
   256
176
     0
 40
1.0
176
     0
 90
        2
176
     1
  1
strokes_ogs.tif
176
     1
290
     0
176
     1
 40
1.0
176
     1
 40
1.0
176
     1
  0
VISUALSTYLE
  5
289C
102
{ACAD_REACTORS
330
2895
102
}
330
2895
100
AcDbVisualStyle
  2
Wireframe
 70
     5
177
     3
291
     0
 70
    58
 90
        0
176
     1
 90
        2
176
     1
 90
        0
176
     1
 90
        0
176
     1
 40
0.6
176
     1
 40
30.0
176
     1
 62
     7
176
     1
 90
        1
176
     1
 90
        4
176
     1
 62
     7
176
     1
 62
   257
176
     1
 90
        1
176
     1
 90
        1
176
     1
 40
1.0
176
     1
 90
        0
176
     1
 62
   257
176
     1
 40
1.0
176
     1
 90
        1
176
     1
 90
        6
176
     1
 90
        2
176
     1
 62
     7
176
     1
 90
        3
176
     1
 90
        0
176
     1
 90
        0
176
     1
290
     0
176
     1
 90
        1
176
     1
 40
0.0
176
     1
 90
        0
176
     1
290
     0
176
     1
290
     1
176
     1
290
     1
176
     1
290
     0
176
     1
290
     0
176
     1
290
     0
176
     1
290
     0
176
     1
290
     0
176
     1
290
     0
176
     1
 90
       50
176
     1
 40
0.0
176
     1
 40
1.0
176
     1
 90
        0
176
     1
 62
    18
176
     1
 90
       50
176
     1
 90
        3
176
     1
 62
     5
420
      255
176
     1
290
     0
176
     1
 90
       50
176
     1
 90
       50
176
     1
 90
       50
176
     1
290
     0
176
     1
 90
       50
176
     1
 62
   256
176
     0
 40
1.0
176
     0
 90
        2
176
     1
  1
strokes_ogs.tif
176
     1
290
     0
176
     1
 40
1.0
176
     1
 40
1.0
176
     1
  0
VISUALSTYLE
  5
28A8
102
{ACAD_REACTORS
330
2895
102
}
330
2895
100
AcDbVisualStyle
  2
X-Ray
 70
    25
177
     3
291
     0
 70
    58
 90
        2
176
     1
 90
        2
176
     1
 90
        1
176
     1
 90
        1
176
     1
 40
0.5
176
     1
 40
30.0
176
     1
 62
     7
176
     1
 90
        1
176
     1
 90
        0
176
     1
 62
     7
176
     1
 62
   257
176
     1
 90
        1
176
     1
 90
        1
176
     1
 40
1.0
176
     1
 90
        8
176
     1
 62
     7
176
     1
 40
1.0
176
     1
 90
        1
176
     1
 90
        6
176
     1
 90
        2
176
     1
 62
     7
176
     1
 90
        3
176
     1
 90
        0
176
     1
 90
        0
176
     1
290
     0
176
     1
 90
       13
176
     1
 40
0.0
176
     1
 90
        0
176
     1
290
     0
176
     1
290
     1
176
     1
290
     1
176
     1
290
     0
176
     1
290
     0
176
     1
290
     0
176
     1
290
     0
176
     1
290
     0
176
     1
290
     0
176
     1
 90
       50
176
     1
 40
0.0
176
     1
 40
1.0
176
     1
 90
        0
176
     1
 62
    18
176
     1
 90
       50
176
     1
 90
        3
176
     1
 62
     5
420
      255
176
     1
290
     0
176
     1
 90
       50
176
     1
 90
       50
176
     1
 90
       50
176
     1
290
     0
176
     1
 90
       50
176
     1
 62
   256
176
     0
 40
1.0
176
     0
 90
        2
176
     1
  1
strokes_ogs.tif
176
     1
290
     0
176
     1
 40
1.0
176
     1
 40
1.0
176
     1
  0
DICTIONARYVAR
  5
28E2
102
{ACAD_REACTORS
330
33
102
}
330
33
100
DictionaryVariables
280
     0
  1
1:1
  0
DICTIONARYVAR
  5
28DE
102
{ACAD_REACTORS
330
33
102
}
330
33
100
DictionaryVariables
280
     0
  1
STANDARD
  0
DICTIONARYVAR
  5
28DD
102
{ACAD_REACTORS
330
33
102
}
330
33
100
DictionaryVariables
280
     0
  1
STANDARD
  0
DICTIONARYVAR
  5
28DF
102
{ACAD_REACTORS
330
33
102
}
330
33
100
DictionaryVariables
280
     0
  1
Metric50
  0
DICTIONARYVAR
  5
28E0
102
{ACAD_REACTORS
330
33
102
}
330
33
100
DictionaryVariables
280
     0
  1
Metric50
  0
DICTIONARYVAR
  5
34
102
{ACAD_REACTORS
330
33
102
}
330
33
100
DictionaryVariables
280
     0
  1
0
  0
DICTIONARYVAR
  5
23F7
102
{ACAD_REACTORS
330
33
102
}
330
33
100
DictionaryVariables
280
     0
  1
1
  0
DICTIONARYVAR
  5
2B02
102
{ACAD_REACTORS
330
33
102
}
330
33
100
DictionaryVariables
280
     0
  1
0
  0
DICTIONARYVAR
  5
28E4
102
{ACAD_REACTORS
330
33
102
}
330
33
100
DictionaryVariables
280
     0
  1
1
  0
DICTIONARYVAR
  5
28E5
102
{ACAD_REACTORS
330
33
102
}
330
33
100
DictionaryVariables
280
     0
  1
15
  0
DICTIONARYVAR
  5
28E3
102
{ACAD_REACTORS
330
33
102
}
330
33
100
DictionaryVariables
280
     0
  1
0
  0
DICTIONARYVAR
  5
28E1
102
{ACAD_REACTORS
330
33
102
}
330
33
100
DictionaryVariables
280
     0
  1
0
  0
DICTIONARYVAR
  5
1383
102
{ACAD_REACTORS
330
33
102
}
330
33
100
DictionaryVariables
280
     0
  1
127
  0
DICTIONARY
  5
7023
330
5947
100
AcDbDictionary
280
     1
281
     1
  3
ACAD_XREC_ROUNDTRIP
360
70E2
  0
DICTIONARY
  5
7019
330
28C8
100
AcDbDictionary
280
     1
281
     1
  3
ACAD_XREC_ROUNDTRIP
360
70DF
  0
DICTIONARY
  5
2AC4
330
760
100
AcDbDictionary
280
     1
281
     1
  0
DICTIONARY
  5
2886
330
2885
100
AcDbDictionary
280
     1
281
     1
  3
BUMPTILE
360
2888
  3
DIFFUSETILE
360
2887
  3
OPACITYTILE
360
288B
  3
REFLECTIONTILE
360
288A
  3
REFRACTIONTILE
360
288C
  3
SPECULARTILE
360
2889
  0
DICTIONARY
  5
287E
330
287D
100
AcDbDictionary
280
     1
281
     1
  3
BUMPTILE
360
2880
  3
DIFFUSETILE
360
287F
  3
OPACITYTILE
360
2883
  3
REFLECTIONTILE
360
2882
  3
REFRACTIONTILE
360
2884
  3
SPECULARTILE
360
2881
  0
DICTIONARY
  5
288E
330
288D
100
AcDbDictionary
280
     1
281
     1
  3
BUMPTILE
360
2890
  3
DIFFUSETILE
360
288F
  3
OPACITYTILE
360
2893
  3
REFLECTIONTILE
360
2892
  3
REFRACTIONTILE
360
2894
  3
SPECULARTILE
360
2891
  0
DICTIONARY
  5
7021
330
5946
100
AcDbDictionary
280
     1
281
     1
  3
ACAD_XREC_ROUNDTRIP
360
70E1
  0
DICTIONARY
  5
7017
330
28C6
100
AcDbDictionary
280
     1
281
     1
  3
ACAD_XREC_ROUNDTRIP
360
70DE
  0
DICTIONARY
  5
2AB3
330
28B0
100
AcDbDictionary
280
     1
281
     1
  3
ACAD_ROUNDTRIP_2008_TABLESTYLE_CELLSTYLEMAP
360
70DD
  0
DICTIONARY
  5
4D29
330
4D28
100
AcDbDictionary
280
     1
281
     1
  3
ACAD_ROUNDTRIP_2008_TABLESTYLE_CELLSTYLEMAP
360
70E0
  0
XRECORD
  5
70E2
102
{ACAD_REACTORS
330
7023
102
}
330
7023
100
AcDbXrecord
280
     1
102
DISPLAYNAME
  1
Imperial24
102
FLAGS
 90
        0
  0
XRECORD
  5
70DF
102
{ACAD_REACTORS
330
7019
102
}
330
7019
100
AcDbXrecord
280
     1
102
DISPLAYNAME
  1
Metric50
102
FLAGS
 90
        0
  0
XRECORD
  5
2888
102
{ACAD_REACTORS
330
2886
102
}
330
2886
100
AcDbXrecord
280
     1
270
     1
271
     1
  0
XRECORD
  5
2887
102
{ACAD_REACTORS
330
2886
102
}
330
2886
100
AcDbXrecord
280
     1
270
     1
271
     1
  0
XRECORD
  5
288B
102
{ACAD_REACTORS
330
2886
102
}
330
2886
100
AcDbXrecord
280
     1
270
     1
271
     1
  0
XRECORD
  5
288A
102
{ACAD_REACTORS
330
2886
102
}
330
2886
100
AcDbXrecord
280
     1
270
     1
271
     1
  0
XRECORD
  5
288C
102
{ACAD_REACTORS
330
2886
102
}
330
2886
100
AcDbXrecord
280
     1
270
     1
271
     1
  0
XRECORD
  5
2889
102
{ACAD_REACTORS
330
2886
102
}
330
2886
100
AcDbXrecord
280
     1
270
     1
271
     1
  0
XRECORD
  5
2880
102
{ACAD_REACTORS
330
287E
102
}
330
287E
100
AcDbXrecord
280
     1
270
     1
271
     1
  0
XRECORD
  5
287F
102
{ACAD_REACTORS
330
287E
102
}
330
287E
100
AcDbXrecord
280
     1
270
     1
271
     1
  0
XRECORD
  5
2883
102
{ACAD_REACTORS
330
287E
102
}
330
287E
100
AcDbXrecord
280
     1
270
     1
271
     1
  0
XRECORD
  5
2882
102
{ACAD_REACTORS
330
287E
102
}
330
287E
100
AcDbXrecord
280
     1
270
     1
271
     1
  0
XRECORD
  5
2884
102
{ACAD_REACTORS
330
287E
102
}
330
287E
100
AcDbXrecord
280
     1
270
     1
271
     1
  0
XRECORD
  5
2881
102
{ACAD_REACTORS
330
287E
102
}
330
287E
100
AcDbXrecord
280
     1
270
     1
271
     1
  0
XRECORD
  5
2890
102
{ACAD_REACTORS
330
288E
102
}
330
288E
100
AcDbXrecord
280
     1
270
     1
271
     1
  0
XRECORD
  5
288F
102
{ACAD_REACTORS
330
288E
102
}
330
288E
100
AcDbXrecord
280
     1
270
     1
271
     1
  0
XRECORD
  5
2893
102
{ACAD_REACTORS
330
288E
102
}
330
288E
100
AcDbXrecord
280
     1
270
     1
271
     1
  0
XRECORD
  5
2892
102
{ACAD_REACTORS
330
288E
102
}
330
288E
100
AcDbXrecord
280
     1
270
     1
271
     1
  0
XRECORD
  5
2894
102
{ACAD_REACTORS
330
288E
102
}
330
288E
100
AcDbXrecord
280
     1
270
     1
271
     1
  0
XRECORD
  5
2891
102
{ACAD_REACTORS
330
288E
102
}
330
288E
100
AcDbXrecord
280
     1
270
     1
271
     1
  0
XRECORD
  5
70E1
102
{ACAD_REACTORS
330
7021
102
}
330
7021
100
AcDbXrecord
280
     1
102
DISPLAYNAME
  1
Imperial24
102
FLAGS
 90
        0
  0
XRECORD
  5
70DE
102
{ACAD_REACTORS
330
7017
102
}
330
7017
100
AcDbXrecord
280
     1
102
DISPLAYNAME
  1
Metric50
102
FLAGS
 90
        0
  0
CELLSTYLEMAP
  5
70DD
102
{ACAD_REACTORS
330
2AB3
102
}
330
2AB3
100
AcDbCellStyleMap
 90
        3
300
CELLSTYLE
  1
TABLEFORMAT_BEGIN
 90
        5
170
     1
 91
        0
 92
    32768
 62
   257
 93
        1
300
CONTENTFORMAT
  1
CONTENTFORMAT_BEGIN
 90
        0
 91
        0
 92
      512
 93
        0
300

 40
0.0
140
1.0
 94
        5
 62
     0
340
F
144
6.0
309
CONTENTFORMAT_END
171
     1
301
MARGIN
  1
CELLMARGIN_BEGIN
 40
1.5
 40
1.5
 40
1.5
 40
1.5
 40
0.18
 40
0.18
309
CELLMARGIN_END
 94
        6
 95
        1
302
GRIDFORMAT
  1
GRIDFORMAT_BEGIN
 90
        0
 91
        1
 62
     0
 92
       -2
340
0
 93
        0
 40
1.125
309
GRIDFORMAT_END
 95
        2
302
GRIDFORMAT
  1
GRIDFORMAT_BEGIN
 90
        0
 91
        1
 62
     0
 92
       -2
340
0
 93
        0
 40
1.125
309
GRIDFORMAT_END
 95
        4
302
GRIDFORMAT
  1
GRIDFORMAT_BEGIN
 90
        0
 91
        1
 62
     0
 92
       -2
340
0
 93
        0
 40
1.125
309
GRIDFORMAT_END
 95
        8
302
GRIDFORMAT
  1
GRIDFORMAT_BEGIN
 90
        0
 91
        1
 62
     0
 92
       -2
340
0
 93
        0
 40
1.125
309
GRIDFORMAT_END
 95
       16
302
GRIDFORMAT
  1
GRIDFORMAT_BEGIN
 90
        0
 91
        1
 62
     0
 92
       -2
340
0
 93
        0
 40
1.125
309
GRIDFORMAT_END
 95
       32
302
GRIDFORMAT
  1
GRIDFORMAT_BEGIN
 90
        0
 91
        1
 62
     0
 92
       -2
340
0
 93
        0
 40
1.125
309
GRIDFORMAT_END
309
TABLEFORMAT_END
  1
CELLSTYLE_BEGIN
 90
        1
 91
        1
300
_TITLE
309
CELLSTYLE_END
300
CELLSTYLE
  1
TABLEFORMAT_BEGIN
 90
        5
170
     1
 91
        0
 92
        0
 62
   257
 93
        1
300
CONTENTFORMAT
  1
CONTENTFORMAT_BEGIN
 90
        0
 91
        0
 92
      512
 93
        0
300

 40
0.0
140
1.0
 94
        5
 62
     0
340
F
144
4.5
309
CONTENTFORMAT_END
171
     1
301
MARGIN
  1
CELLMARGIN_BEGIN
 40
1.5
 40
1.5
 40
1.5
 40
1.5
 40
0.18
 40
0.18
309
CELLMARGIN_END
 94
        6
 95
        1
302
GRIDFORMAT
  1
GRIDFORMAT_BEGIN
 90
        0
 91
        1
 62
     0
 92
       -2
340
0
 93
        0
 40
1.125
309
GRIDFORMAT_END
 95
        2
302
GRIDFORMAT
  1
GRIDFORMAT_BEGIN
 90
        0
 91
        1
 62
     0
 92
       -2
340
0
 93
        0
 40
1.125
309
GRIDFORMAT_END
 95
        4
302
GRIDFORMAT
  1
GRIDFORMAT_BEGIN
 90
        0
 91
        1
 62
     0
 92
       -2
340
0
 93
        0
 40
1.125
309
GRIDFORMAT_END
 95
        8
302
GRIDFORMAT
  1
GRIDFORMAT_BEGIN
 90
        0
 91
        1
 62
     0
 92
       -2
340
0
 93
        0
 40
1.125
309
GRIDFORMAT_END
 95
       16
302
GRIDFORMAT
  1
GRIDFORMAT_BEGIN
 90
        0
 91
        1
 62
     0
 92
       -2
340
0
 93
        0
 40
1.125
309
GRIDFORMAT_END
 95
       32
302
GRIDFORMAT
  1
GRIDFORMAT_BEGIN
 90
        0
 91
        1
 62
     0
 92
       -2
340
0
 93
        0
 40
1.125
309
GRIDFORMAT_END
309
TABLEFORMAT_END
  1
CELLSTYLE_BEGIN
 90
        2
 91
        1
300
_HEADER
309
CELLSTYLE_END
300
CELLSTYLE
  1
TABLEFORMAT_BEGIN
 90
        5
170
     1
 91
        0
 92
        0
 62
   257
 93
        1
300
CONTENTFORMAT
  1
CONTENTFORMAT_BEGIN
 90
        0
 91
        0
 92
      512
 93
        0
300

 40
0.0
140
1.0
 94
        2
 62
     0
340
F
144
4.5
309
CONTENTFORMAT_END
171
     1
301
MARGIN
  1
CELLMARGIN_BEGIN
 40
1.5
 40
1.5
 40
1.5
 40
1.5
 40
0.18
 40
0.18
309
CELLMARGIN_END
 94
        6
 95
        1
302
GRIDFORMAT
  1
GRIDFORMAT_BEGIN
 90
        0
 91
        1
 62
     0
 92
       -2
340
0
 93
        0
 40
1.125
309
GRIDFORMAT_END
 95
        2
302
GRIDFORMAT
  1
GRIDFORMAT_BEGIN
 90
        0
 91
        1
 62
     0
 92
       -2
340
0
 93
        0
 40
1.125
309
GRIDFORMAT_END
 95
        4
302
GRIDFORMAT
  1
GRIDFORMAT_BEGIN
 90
        0
 91
        1
 62
     0
 92
       -2
340
0
 93
        0
 40
1.125
309
GRIDFORMAT_END
 95
        8
302
GRIDFORMAT
  1
GRIDFORMAT_BEGIN
 90
        0
 91
        1
 62
     0
 92
       -2
340
0
 93
        0
 40
1.125
309
GRIDFORMAT_END
 95
       16
302
GRIDFORMAT
  1
GRIDFORMAT_BEGIN
 90
        0
 91
        1
 62
     0
 92
       -2
340
0
 93
        0
 40
1.125
309
GRIDFORMAT_END
 95
       32
302
GRIDFORMAT
  1
GRIDFORMAT_BEGIN
 90
        0
 91
        1
 62
     0
 92
       -2
340
0
 93
        0
 40
1.125
309
GRIDFORMAT_END
309
TABLEFORMAT_END
  1
CELLSTYLE_BEGIN
 90
        3
 91
        2
300
_DATA
309
CELLSTYLE_END
  0
CELLSTYLEMAP
  5
70E0
102
{ACAD_REACTORS
330
4D29
102
}
330
4D29
100
AcDbCellStyleMap
 90
        4
300
CELLSTYLE
  1
TABLEFORMAT_BEGIN
 90
        5
170
     1
 91
        0
 92
    32768
 62
   257
 93
        1
300
CONTENTFORMAT
  1
CONTENTFORMAT_BEGIN
 90
        0
 91
        0
 92
      512
 93
        0
300

 40
0.0
140
1.0
 94
        5
 62
     0
340
F
144
6.0
309
CONTENTFORMAT_END
171
     1
301
MARGIN
  1
CELLMARGIN_BEGIN
 40
1.5
 40
1.5
 40
1.5
 40
1.5
 40
0.18
 40
0.18
309
CELLMARGIN_END
 94
        6
 95
        1
302
GRIDFORMAT
  1
GRIDFORMAT_BEGIN
 90
        0
 91
        1
 62
     0
 92
       -2
340
0
 93
        0
 40
1.125
309
GRIDFORMAT_END
 95
        2
302
GRIDFORMAT
  1
GRIDFORMAT_BEGIN
 90
        0
 91
        1
 62
     0
 92
       -2
340
0
 93
        0
 40
1.125
309
GRIDFORMAT_END
 95
        4
302
GRIDFORMAT
  1
GRIDFORMAT_BEGIN
 90
        0
 91
        1
 62
     0
 92
       -2
340
0
 93
        0
 40
1.125
309
GRIDFORMAT_END
 95
        8
302
GRIDFORMAT
  1
GRIDFORMAT_BEGIN
 90
        0
 91
        1
 62
     0
 92
       -2
340
0
 93
        0
 40
1.125
309
GRIDFORMAT_END
 95
       16
302
GRIDFORMAT
  1
GRIDFORMAT_BEGIN
 90
        0
 91
        1
 62
     0
 92
       -2
340
0
 93
        0
 40
1.125
309
GRIDFORMAT_END
 95
       32
302
GRIDFORMAT
  1
GRIDFORMAT_BEGIN
 90
        0
 91
        1
 62
     0
 92
       -2
340
0
 93
        0
 40
1.125
309
GRIDFORMAT_END
309
TABLEFORMAT_END
  1
CELLSTYLE_BEGIN
 90
        1
 91
        1
300
_TITLE
309
CELLSTYLE_END
300
CELLSTYLE
  1
TABLEFORMAT_BEGIN
 90
        5
170
     1
 91
        0
 92
        0
 62
   257
 93
        1
300
CONTENTFORMAT
  1
CONTENTFORMAT_BEGIN
 90
        0
 91
        0
 92
      512
 93
        0
300

 40
0.0
140
1.0
 94
        5
 62
     0
340
F
144
4.5
309
CONTENTFORMAT_END
171
     1
301
MARGIN
  1
CELLMARGIN_BEGIN
 40
1.5
 40
1.5
 40
1.5
 40
1.5
 40
0.18
 40
0.18
309
CELLMARGIN_END
 94
        6
 95
        1
302
GRIDFORMAT
  1
GRIDFORMAT_BEGIN
 90
        0
 91
        1
 62
     0
 92
       -2
340
0
 93
        0
 40
1.125
309
GRIDFORMAT_END
 95
        2
302
GRIDFORMAT
  1
GRIDFORMAT_BEGIN
 90
        0
 91
        1
 62
     0
 92
       -2
340
0
 93
        0
 40
1.125
309
GRIDFORMAT_END
 95
        4
302
GRIDFORMAT
  1
GRIDFORMAT_BEGIN
 90
        0
 91
        1
 62
     0
 92
       -2
340
0
 93
        0
 40
1.125
309
GRIDFORMAT_END
 95
        8
302
GRIDFORMAT
  1
GRIDFORMAT_BEGIN
 90
        0
 91
        1
 62
     0
 92
       -2
340
0
 93
        0
 40
1.125
309
GRIDFORMAT_END
 95
       16
302
GRIDFORMAT
  1
GRIDFORMAT_BEGIN
 90
        0
 91
        1
 62
     0
 92
       -2
340
0
 93
        0
 40
1.125
309
GRIDFORMAT_END
 95
       32
302
GRIDFORMAT
  1
GRIDFORMAT_BEGIN
 90
        0
 91
        1
 62
     0
 92
       -2
340
0
 93
        0
 40
1.125
309
GRIDFORMAT_END
309
TABLEFORMAT_END
  1
CELLSTYLE_BEGIN
 90
        2
 91
        1
300
_HEADER
309
CELLSTYLE_END
300
CELLSTYLE
  1
TABLEFORMAT_BEGIN
 90
        5
170
     1
 91
        0
 92
        0
 62
   257
 93
        1
300
CONTENTFORMAT
  1
CONTENTFORMAT_BEGIN
 90
        0
 91
        0
 92
        4
 93
        0
300

 40
0.0
140
1.0
 94
        5
 62
     7
340
F
144
4.5
309
CONTENTFORMAT_END
171
     1
301
MARGIN
  1
CELLMARGIN_BEGIN
 40
0.5
 40
0.5
 40
1.5
 40
1.5
 40
0.18
 40
0.18
309
CELLMARGIN_END
 94
        6
 95
        1
302
GRIDFORMAT
  1
GRIDFORMAT_BEGIN
 90
        0
 91
        1
 62
     0
 92
       -2
340
0
 93
        0
 40
1.125
309
GRIDFORMAT_END
 95
        2
302
GRIDFORMAT
  1
GRIDFORMAT_BEGIN
 90
        0
 91
        1
 62
     0
 92
       -2
340
0
 93
        0
 40
1.125
309
GRIDFORMAT_END
 95
        4
302
GRIDFORMAT
  1
GRIDFORMAT_BEGIN
 90
        0
 91
        1
 62
     0
 92
       -2
340
0
 93
        0
 40
1.125
309
GRIDFORMAT_END
 95
        8
302
GRIDFORMAT
  1
GRIDFORMAT_BEGIN
 90
        0
 91
        1
 62
     0
 92
       -2
340
0
 93
        0
 40
1.125
309
GRIDFORMAT_END
 95
       16
302
GRIDFORMAT
  1
GRIDFORMAT_BEGIN
 90
        0
 91
        1
 62
     0
 92
       -2
340
0
 93
        0
 40
1.125
309
GRIDFORMAT_END
 95
       32
302
GRIDFORMAT
  1
GRIDFORMAT_BEGIN
 90
        0
 91
        1
 62
     0
 92
       -2
340
0
 93
        0
 40
1.125
309
GRIDFORMAT_END
309
TABLEFORMAT_END
  1
CELLSTYLE_BEGIN
 90
        3
 91
        2
300
_DATA
309
CELLSTYLE_END
300
CELLSTYLE
  1
TABLEFORMAT_BEGIN
 90
        5
170
     1
 91
        0
 92
    32768
 62
   257
 93
        1
300
CONTENTFORMAT
  1
CONTENTFORMAT_BEGIN
 90
        0
 91
        0
 92
        4
 93
        0
300

 40
0.0
140
1.0
 94
        5
 62
     0
340
4D26
144
6.0
309
CONTENTFORMAT_END
171
     1
301
MARGIN
  1
CELLMARGIN_BEGIN
 40
0.0
 40
0.0
 40
1.5
 40
1.5
 40
4.5
 40
4.5
309
CELLMARGIN_END
 94
        6
 95
        1
302
GRIDFORMAT
  1
GRIDFORMAT_BEGIN
 90
        0
 91
        1
 62
     0
 92
       -2
340
0
 93
        0
 40
1.125
309
GRIDFORMAT_END
 95
        2
302
GRIDFORMAT
  1
GRIDFORMAT_BEGIN
 90
        0
 91
        1
 62
     0
 92
       -2
340
0
 93
        0
 40
1.125
309
GRIDFORMAT_END
 95
        4
302
GRIDFORMAT
  1
GRIDFORMAT_BEGIN
 90
        0
 91
        1
 62
     0
 92
       -2
340
0
 93
        0
 40
1.125
309
GRIDFORMAT_END
 95
        8
302
GRIDFORMAT
  1
GRIDFORMAT_BEGIN
 90
        0
 91
        1
 62
     0
 92
       -2
340
0
 93
        0
 40
1.125
309
GRIDFORMAT_END
 95
       16
302
GRIDFORMAT
  1
GRIDFORMAT_BEGIN
 90
        0
 91
        1
 62
     0
 92
       -2
340
0
 93
        0
 40
1.125
309
GRIDFORMAT_END
 95
       32
302
GRIDFORMAT
  1
GRIDFORMAT_BEGIN
 90
        0
 91
        1
 62
     0
 92
       -2
340
0
 93
        0
 40
1.125
309
GRIDFORMAT_END
309
TABLEFORMAT_END
  1
CELLSTYLE_BEGIN
 90
      101
 91
        2
300
文字
309
CELLSTYLE_END
  0
ENDSEC
  0
SECTION
  2
ACDSDATA
 70
     2
 71
     6
  0
ACDSSCHEMA
 90
        0
  1
AcDb_Thumbnail_Schema
  2
AcDbDs::ID
280
    10
 91
        8
  2
Thumbnail_Data
280
    15
 91
        0
101
ACDSRECORD
 95
        0
 90
        1
  2
AcDbDs::TreatedAsObjectData
280
     1
291
     1
101
ACDSRECORD
 95
        0
 90
        2
  2
AcDbDs::Legacy
280
     1
291
     1
101
ACDSRECORD
  1
AcDbDs::ID
 90
        3
  2
AcDs:Indexable
280
     1
291
     1
101
ACDSRECORD
  1
AcDbDs::ID
 90
        4
  2
AcDbDs::HandleAttribute
280
     7
282
     1
  0
ACDSSCHEMA
 90
        1
  1
AcDbDs::TreatedAsObjectDataSchema
  2
AcDbDs::TreatedAsObjectData
280
     1
 91
        0
  0
ACDSSCHEMA
 90
        2
  1
AcDbDs::LegacySchema
  2
AcDbDs::Legacy
280
     1
 91
        0
  0
ACDSSCHEMA
 90
        3
  1
AcDbDs::IndexedPropertySchema
  2
AcDs:Indexable
280
     1
 91
        0
  0
ACDSSCHEMA
 90
        4
  1
AcDbDs::HandleAttributeSchema
  2
AcDbDs::HandleAttribute
280
     7
 91
        1
284
     1
  0
ACDSRECORD
 90
        0
  2
AcDbDs::ID
280
    10
320
760
  2
Thumbnail_Data
280
    15
 94
     1078
310
89504E470D0A1A0A0000000D494844520000010000000062080300000088E7FDB100000300504C5445000000000000C8C8C80000000000000000000000000000000000000000000000000000330000660000990000CC0000FF0033000033330033660033990033CC0033FF0066000066330066660066990066CC0066FF0099
310
000099330099660099990099CC0099FF00CC0000CC3300CC6600CC9900CCCC00CCFF00FF0000FF3300FF6600FF9900FFCC00FFFF3300003300333300663300993300CC3300FF3333003333333333663333993333CC3333FF3366003366333366663366993366CC3366FF3399003399333399663399993399CC3399FF33CC00
310
33CC3333CC6633CC9933CCCC33CCFF33FF0033FF3333FF6633FF9933FFCC33FFFF6600006600336600666600996600CC6600FF6633006633336633666633996633CC6633FF6666006666336666666666996666CC6666FF6699006699336699666699996699CC6699FF66CC0066CC3366CC6666CC9966CCCC66CCFF66FF0066
310
FF3366FF6666FF9966FFCC66FFFF9900009900339900669900999900CC9900FF9933009933339933669933999933CC9933FF9966009966339966669966999966CC9966FF9999009999339999669999999999CC9999FF99CC0099CC3399CC6699CC9999CCCC99CCFF99FF0099FF3399FF6699FF9999FFCC99FFFFCC0000CC00
310
33CC0066CC0099CC00CCCC00FFCC3300CC3333CC3366CC3399CC33CCCC33FFCC6600CC6633CC6666CC6699CC66CCCC66FFCC9900CC9933CC9966CC9999CC99CCCC99FFCCCC00CCCC33CCCC66CCCC99CCCCCCCCCCFFCCFF00CCFF33CCFF66CCFF99CCFFCCCCFFFFFF0000FF0033FF0066FF0099FF00CCFF00FFFF3300FF3333
310
FF3366FF3399FF33CCFF33FFFF6600FF6633FF6666FF6699FF66CCFF66FFFF9900FF9933FF9966FF9999FF99CCFF99FFFFCC00FFCC33FFCC66FFCC99FFCCCCFFCCFFFFFF00FFFF33FFFF66FFFF99FFFFCCFFFFFF0000000D0D0D1A1A1A2828283535354343435050505D5D5D6B6B6B787878868686939393A1A1A1AEAEAEBB
310
BBBBC9C9C9D6D6D6E4E4E4F1F1F1FFFFFF00000000000000000000000000000000000000000000000000000000000008F1915C000000F14944415478DAEDDCC10A83300C00D07CD8FEFF8F7A1F53A47513C77649495F10527B91BCC61C1B21FE8DC744910330D159E47DB5A5473640F6E10300000000000000000000000000
310
000000000000000000000000000000000000000000000000000000000000000000000000000000000000000000000000000000000000000000000000000000000000000000000000000000B20096BF50F1A7724B76C0CB604F71A463EF5CF8FED637EA016CA9DD03B48A001FA98D15AF3C04637BAA0FC133C43790A12BCA74
310
405CD6389E735F8C93A0D02F70D1EA7DAB3CC0CD3088F721D8A61A82AB5FAD3D472401AC7EBD7E8D780214E177EF186821C70000000049454E44AE426082
  0
ENDSEC
  0
EOF
